Filecrypt zeigt vereinzelt Files als "n/a". Die Downloads sind trotzdem komplett.

DNS SERVER AENDERNum der staatlichen Zensur zu umgehen. Sollten wir von eurem Provider geseprrt werden, nutzt den TOR BROWSER oder ändert euren DNS SERVER.

Filmwünsche können bei uns im Forum abgegeben werden

Wir Speichern Nicht




 
 
 
Top Releases
Gangstas.4.Life.2018.DUAL.CO...
Operation.Red.Sea.2018.MULTi...
Unknown.Soldier.Kampf.ums.Va...
No.Way.Out.Gegen.die.Flammen...
Die.brilliante.Mademoiselle....
Das.Geheimniss.von.Marrowbon...
Die.brilliante.Mademoiselle....
Die.brilliante.Mademoiselle....
Das.Geheimniss.von.Marrowbon...
Das.Geheimniss.von.Marrowbon...

Cinedubs
Die.unglaubliche.Reise.des.F...
Die.unglaubliche.Reise.des.F...
BlacKkKlansman.2018.GERMAN.D...
BlacKkKlansman.2018.GERMAN.D...
Mile.22.2018.German.AC3MD.DL...
Mile.22.2018.German.AC3MD.DL...
Die.Unglaublichen.2.German.D...
Die.Unglaublichen.2.German.D...
Blame.Verbotenes.Verlangen.G...
Blame.Verbotenes.Verlangen.G...

Neuerscheinungen 2017-18
Tanz.der.Teufel.2.Evil.Evil....
Dinky.Sinky.2016.GERMAN.COMP...
Liebe.Heute.morgen.und.fuer....
Der.Koenig.meines.Herzens.20...
Street.Justice.Rache.kennt.k...
Tanz.der.Teufel.2.Evil.Dead....
Taxi.5.2018.DUAL.COMPLETE.BL...
Viking.Destiny.2018.MULTI.CO...
Wolf.Mother.2016.MULTi.COMPL...
Volcano.Heisser.als.die.Hoel...

XXX
BigTitsAtWork.18.10.17.Katan...
Babes.18.10.15.Chloe.Cherry....
BangingBeauties.18.10.18.Aud...
Aziani.18.10.12.Miranda.Mill...
Be.A.Good.Boy.To.Me.2.XXX.72...
AuntJudys.18.10.15.Afeena.Ma...
AssholeFever.18.10.13.Luna.C...
AllOver30.18.10.15.Roxana.Ma...
BAMVisions.18.10.07.Paige.Ow...
Bang.RealTeens.18.10.15.Maya...
Be.A.Good.Boy.To.Me.2.XXX.10...
BigGulpGirls.18.10.01.Autumn...
AmateurCFNM.18.10.16.Victori...
AssParade.18.10.15.Rose.Monr...
BigButtsLikeItBig.18.10.16.M...
BFFS.18.10.13.Ashley.Lane.Gr...
BAMVisions.18.10.11.Adria.Ra...
ATKHairy.18.10.13.Andy.Moon....
BangBus.18.10.17.Vina.Sky.XX...
BigNaturals.18.10.16.Britt.J...

3D
Detective.Dee.und.die.Legend...
Detective.Dee.und.die.Legend...
Skyscraper.3D.German.DL.AC3....
Ant-Man.and.the.Wasp.2018.3D...
Jurassic.World.Das.gefallene...
Jurassic.World.Das.gefallene...
Best.of.3D.vol.10.-.12.GERMA...
Die.Biene.Maja.2.Die.Honigsp...
Sharknado.6.The.Last.One.3D....
Solo.A.Star.Wars.Story.3D.20...
Solo.A.Star.Wars.Story.3D.20...
Die.Biene.Maja.2.Die.Honigsp...
Avengers.Infinity.War.3D.201...
Avengers.Infinity.War.3D.201...
Rampage.Big.Meets.Bigger.3D....

Old_Stuff
Species.IV.Das.Erwachen.2007...
Species.IV.Das.Erwachen.2007...
Hotel.Transsilvanien.2012.Ge...
The.Dead.2010.German.DL.1080...
The.Dead.2.India.2013.German...
Britney.Spears.Live.The.Femm...
Buffy.The.Vampire.Slayer.199...
IMAX.Ride.Around.The.World.2...
Schimanski.-.Duisburg.Ruhror...
Akte.X.S02.German.DTS.DL.108...
How.I.Met.Your.Mother.S02.Ge...
Akte.X.S01.German.DTS.DL.108...
Den.Himmel.gibts.echt.DL.108...
Vikings.S02.German.DL.1080p....
Be.Kind.Rewind.Abgedreht.200...

Filme
Castlevania.S02.COMPLETE.GER...
Castlevania.S02.COMPLETE.GER...
Krypton.S01.GERMAN.DUBBED.72...
The.Outpost.S01.GERMAN.720p....
4.Blocks.S02.GERMAN.1080p.HD...
4.Blocks.S02.GERMAN.720p.HDT...
Mom.and.Dad.2017.GERMAN.DL.1...
Mamma.Mia.Here.We.Go.Again.2...
Red.Army.Hooligans.2018.Germ...
Ash.vs.Evil.Dead.S02D01.COMP...
Die.Simpsons.S29.GERMAN.DUBB...
Der.Marsianer.Rettet.Mark.Wa...
Riverdale.US.S03.GERMAN.DL.1...
Riverdale.US.S03.GERMAN.DL.7...
The.First.Purge.2018.German....
Foltergarten.der.Sinnlichkei...
12.Monkeys.1995.Arrow.Remast...
Lilien.auf.dem.Felde.1963.Ge...
Flight.23.Air.Crash.2012.GER...
Liu-San.-.Waechter.des.Leben...
Junggeselle.im.Paradies.1961...
The.Last.Ship.S05.GERMAN.DUB...
The.Last.Ship.S05.GERMAN.DUB...
Die.Simpsons.S29.GERMAN.DUBB...

 
 
Castlevania.S02.COMPLETE.GERMAN.DL.720p.WEB.x264-EiSBOCK

Jahr: 2018
Genre: Animation | Action | Abenteuer
Sprache: Deutsch AC3 | Englisch AC3
Laufzeit: 25min je Folge
Bitrate: 4100 Kbps
Format: MKV
Größe: 900 MB je Folge
Release:

Beschreibung:

Die Netflix-Animationsserie „Castlevania“ basiert auf der gleichnamigen Videospielreihe von Spieleentwickler Konami, dessen erster Teil 1987 auf dem Nintendo Entertainment System erschien.

Inspiriert von der Handlung aus den Spielen um einen Vampirjäger, handelt die „Castlevania“-Serie von dem letzten Überlebenden der Belmont-Familie, der sich eigenhändig daran macht, Osteuropa von Obervampir Dracula und seinem Monsterarsenal zu befreien.



General
Complete name                            : Castlevania.S02E01.GERMAN.DL.720p.WEB.x264-EiSBOCK\castlevania.s02e01.german.dl.720p.web.x264-eisbock.mkv
Format                                   : Matroska
Format version                           : Version 4 / Version 2
File size                                : 913 MiB
Duration                                 : 25mn 12s
Overall bit rate mode                    : Variable
Overall bit rate                         : 5 064 Kbps
Encoded date                             : UTC 2018-10-26 07:00:49
Writing application                      : mkvmerge v26.0.0 ('In The Game') 64-bit
Writing library                          : libebml v1.3.6 + libmatroska v1.4.9

Video
ID                                       : 1
Format                                   : AVC
Format/Info                              : Advanced Video Codec
Format profile                           : Main@L3.1
Format settings, CABAC                   : Yes
Format settings, ReFrames                : 3 frames
Codec ID                                 : V_MPEG4/ISO/AVC
Duration                                 : 25mn 12s
Bit rate mode                            : Variable
Bit rate                                 : 4 195 Kbps
Nominal bit rate                         : 4 420 Kbps
Maximum bit rate                         : 6 630 Kbps
Width                                    : 1 280 pixels
Height                                   : 720 pixels
Display aspect ratio                     : 16:9
Frame rate mode                          : Constant
Frame rate                               : 23.976 fps
Color space                              : YUV
Chroma subsampling                       : 4:2:0
Bit depth                                : 8 bits
Scan type                                : Progressive
Bits/(Pixel*Frame)                       : 0.190
Stream size                              : 756 MiB (83%)
Writing library                          : x264 core 148 r2715 7e75228
Encoding settings                        : cabac=1 / ref=3 / deblock=1:0:0 / analyse=0x1:0x111 / me=umh / subme=10 / psy=1 / psy_rd=1.00:0.00 / mixed_ref=1 / me_range=24 / chroma_me=1 / trellis=2 / 8x8dct=0 / cqm=0 / deadzone=21,11 / fast_pskip=1 / chroma_qp_offset=-2 / threads=8 / lookahead_threads=1 / sliced_threads=0 / nr=0 / decimate=1 / interlaced=0 / bluray_compat=0 / stitchable=1 / constrained_intra=0 / bframes=2 / b_pyramid=0 / b_adapt=2 / b_bias=0 / direct=3 / weightb=1 / open_gop=0 / weightp=2 / keyint=48 / keyint_min=25 / scenecut=0 / intra_refresh=0 / rc_lookahead=48 / rc=2pass / mbtree=1 / bitrate=4420 / ratetol=1.0 / qcomp=0.50 / qpmin=6 / qpmax=51 / qpstep=4 / cplxblur=20.0 / qblur=0.5 / vbv_maxrate=6630 / vbv_bufsize=8840 / nal_hrd=vbr / filler=0 / ip_ratio=1.40 / aq=1:1.00
Default                                  : Yes
Forced                                   : No

Audio #1
ID                                       : 2
Format                                   : AC-3
Format/Info                              : Audio Coding 3
Mode extension                           : CM (complete main)
Format settings, Endianness              : Big
Codec ID                                 : A_AC3
Duration                                 : 25mn 12s
Bit rate mode                            : Constant
Bit rate                                 : 384 Kbps
Channel(s)                               : 6 channels
Channel positions                        : Front: L C R, Side: L R, LFE
Sampling rate                            : 48.0 KHz
Bit depth                                : 16 bits
Compression mode                         : Lossy
Stream size                              : 69.2 MiB (8%)
Language                                 : German
Default                                  : Yes
Forced                                   : No

Audio #2
ID                                       : 3
Format                                   : AC-3
Format/Info                              : Audio Coding 3
Mode extension                           : CM (complete main)
Format settings, Endianness              : Big
Codec ID                                 : A_AC3
Duration                                 : 25mn 12s
Bit rate mode                            : Constant
Bit rate                                 : 384 Kbps
Channel(s)                               : 6 channels
Channel positions                        : Front: L C R, Side: L R, LFE
Sampling rate                            : 48.0 KHz
Bit depth                                : 16 bits
Compression mode                         : Lossy
Stream size                              : 69.2 MiB (8%)
Language                                 : English
Default                                  : No
Forced                                   : No

Text #1
ID                                       : 4
Format                                   : UTF-8
Codec ID                                 : S_TEXT/UTF8
Codec ID/Info                            : UTF-8 Plain Text
Title                                    : German Forced
Language                                 : German
Default                                  : Yes
Forced                                   : Yes

Text #2
ID                                       : 5
Format                                   : UTF-8
Codec ID                                 : S_TEXT/UTF8
Codec ID/Info                            : UTF-8 Plain Text
Title                                    : German
Language                                 : German
Default                                  : No
Forced                                   : No

Text #3
ID                                       : 6
Format                                   : UTF-8
Codec ID                                 : S_TEXT/UTF8
Codec ID/Info                            : UTF-8 Plain Text
Title                                    : English
Language                                 : English
Default                                  : No
Forced                                   : No

Text #4
ID                                       : 7
Format                                   : UTF-8
Codec ID                                 : S_TEXT/UTF8
Codec ID/Info                            : UTF-8 Plain Text
Title                                    : English (CC)
Language                                 : English
Default                                  : No
Forced                                   : No



Download:
Share-Online.biz Share-Online.bizShare-Online.bizShare-Online.biz | Rapidgator.net Rapidgator.netRapidgator.netRapidgator.net
 

Kommentare