Filecrypt zeigt vereinzelt Files als "n/a". Die Downloads sind trotzdem komplett.

DNS SERVER AENDERNum der staatlichen Zensur zu umgehen. Sollten wir von eurem Provider geseprrt werden, nutzt den TOR BROWSER oder ändert euren DNS SERVER.

Filmwünsche können bei uns im Forum abgegeben werden

Wir Speichern Nicht




 
 
 
Top Releases
Catch.Me.German.DL.AC3.Dubbe...
Catch.Me.German.DL.AC3.Dubbe...
Operation.Red.Sea.2018.Germa...
Operation.Red.Sea.2018.Germa...
Mamma.Mia.Here.We.Go.Again.G...
Mamma.Mia.Here.We.Go.Again.G...
Unknown.Soldier.Kampf.ums.Va...
Unknown.Soldier.Kampf.ums.Va...
Gangstas.4.Life.2018.German....
Gangstas.4.Life.2018.German....

Cinedubs
Christopher.Robin.2018.GERMA...
Christopher.Robin.2018.GERMA...
Die.unglaubliche.Reise.des.F...
Die.unglaubliche.Reise.des.F...
BlacKkKlansman.2018.GERMAN.D...
BlacKkKlansman.2018.GERMAN.D...
Mile.22.2018.German.AC3MD.DL...
Mile.22.2018.German.AC3MD.DL...
Die.Unglaublichen.2.German.D...
Die.Unglaublichen.2.German.D...

Neuerscheinungen 2017-18
Tanz.der.Teufel.2.1987.Remas...
Pluto.Ein.Schutzengel.auf.vi...
Dinky.Sinky.2016.German.720p...
Dinky.Sinky.2016.German.1080...
Liebe.Heute.morgen.und.fuer....
Liebe.Heute.morgen.und.fuer....
LenaLove.2016.German.720p.WE...
LenaLove.2016.German.1080p.W...
The.Killer.BOOTLEG.GERMAN.19...
Deep.Kleine.Helden.der.Tiefs...

XXX
CherryPimps.18.10.15.Isabell...
ClubSeventeen.18.10.13.Vanes...
CocksXL.18.10.13.Brenda.Star...
BurningAngel.18.10.17.Ivy.Le...
ClubSeventeen.18.10.17.Anna....
ATKGirlfriends.18.10.18.Rosa...
BrazzersExxtra.18.10.16.Gabr...
ATKGirlfriends.18.10.15.Ivy....
ClubSeventeen.18.10.18.Mila....
BrothaLovers.18.10.13.Angeli...
Cosmid.18.10.17.Sophia.Blake...
BigTitsRoundAsses.18.10.18.A...
Confessions.18.10.15.Molly.M...
BlacksOnBlondes.18.10.16.Avi...
CherryPimps.18.10.18.Emily.W...
BlackedRaw.18.10.14.Ivy.Lebe...
ClubSeventeen.18.10.16.Camil...
BoldlyGirls.18.10.14.Baby.Re...
ATKHairy.18.10.16.Dakota.Ros...
Clit.Licking.Girlfriends.XXX...

3D
Deep.Kleine.Helden.der.Tiefs...
Deep.3D.2017.MULTI.COMPLETE....
Detective.Dee.und.die.Legend...
Detective.Dee.und.die.Legend...
Skyscraper.3D.German.DL.AC3....
Ant-Man.and.the.Wasp.2018.3D...
Jurassic.World.Das.gefallene...
Jurassic.World.Das.gefallene...
Best.of.3D.vol.10.-.12.GERMA...
Die.Biene.Maja.2.Die.Honigsp...
Sharknado.6.The.Last.One.3D....
Solo.A.Star.Wars.Story.3D.20...
Solo.A.Star.Wars.Story.3D.20...
Die.Biene.Maja.2.Die.Honigsp...
Avengers.Infinity.War.3D.201...

Old_Stuff
Species.IV.Das.Erwachen.2007...
Species.IV.Das.Erwachen.2007...
Hotel.Transsilvanien.2012.Ge...
The.Dead.2010.German.DL.1080...
The.Dead.2.India.2013.German...
Britney.Spears.Live.The.Femm...
Buffy.The.Vampire.Slayer.199...
IMAX.Ride.Around.The.World.2...
Schimanski.-.Duisburg.Ruhror...
Akte.X.S02.German.DTS.DL.108...
How.I.Met.Your.Mother.S02.Ge...
Akte.X.S01.German.DTS.DL.108...
Den.Himmel.gibts.echt.DL.108...
Vikings.S02.German.DL.1080p....
Be.Kind.Rewind.Abgedreht.200...

Filme
Sodbrennen.-.Heartburn.1986....
The.Strangers.Opfernacht.201...
The.Strangers.Opfernacht.201...
Tanz.der.Teufel.2.1987.Germa...
Tanz.der.Teufel.2.1987.Germa...
Taxi.5.2018.German.720p.BluR...
Taxi.5.2018.German.1080p.Blu...
The.First.Purge.2018.German....
iZombie.S04.German.DD51.Dubb...
iZombie.S04.German.DD51.Dubb...
Mr.Mercedes.S02.COMPLETE.Ger...
Mr.Mercedes.S02.COMPLETE.Ger...
Krypton.S01.German.DD51.Dubb...
Music.Box.-.Die.ganze.Wahrhe...
Chilling.Adventures.Of.Sabri...
Sherlock.Holmes.cleverer.Bru...
Chilling.Adventures.of.Sabri...
Castlevania.S02.COMPLETE.GER...
Castlevania.S02.COMPLETE.GER...
Krypton.S01.GERMAN.DUBBED.72...
The.Outpost.S01.GERMAN.720p....
4.Blocks.S02.GERMAN.1080p.HD...
4.Blocks.S02.GERMAN.720p.HDT...
Mom.and.Dad.2017.GERMAN.DL.1...

 
 
Taxi.5.2018.German.720p.BluRay.x264-CHECKMATE

Jahr: 2018
Genre: Action, Komödie
Sprache: Deutsch DTS
Laufzeit: 1h 42mn
Bitrate: 3 655 Kbps
Format: MKV
Größe: 2.62 GiB
Release:

Beschreibung:

Der Polizist Sylvain Marot (F. Gastambide) wurde gegen seinen Willen von Paris nach Marseille strafversetzt. Dort angekommen soll er direkt einen brisanten Auftrag übernehmen. Und zwar setzt man ihn auf eine italienische Bande an, die in Marseille mit Ferraris ihr Unwesen treibt. Unterstützt wird er auf seiner Jagd von Eddy (M. Bentalha), dem Neffen von Daniel. Eddy bringt sowohl das nötige Talent als auch das legendäre weiße Taxi mit.



Complete name                            : checkmate-taxi.5.720p.mkv
Format                                   : Matroska
Format version                           : Version 4 / Version 2
File size                                : 2.62 GiB
Duration                                 : 1h 42mn
Overall bit rate                         : 3 655 Kbps
Encoded date                             : UTC 2018-10-24 16:55:26
Writing application                      : mkvmerge v27.0.0 ('Metropolis') 64-bit
Writing library                          : libebml v1.3.6 + libmatroska v1.4.9
DURATION                                 : 00:00:01.832000000
NUMBER_OF_FRAMES                         : 1
NUMBER_OF_BYTES                          : 6
_STATISTICS_WRITING_APP                  : mkvmerge v27.0.0 ('Metropolis') 64-bit
_STATISTICS_WRITING_DATE_UTC             : 2018-10-24 16:55:26
_STATISTICS_TAGS                         : BPS DURATION NUMBER_OF_FRAMES NUMBER_OF_BYTES

Video
ID                                       : 1
Format                                   : AVC
Format/Info                              : Advanced Video Codec
Format profile                           : High@L4.1
Format settings, CABAC                   : Yes
Format settings, ReFrames                : 5 frames
Codec ID                                 : V_MPEG4/ISO/AVC
Duration                                 : 1h 42mn
Bit rate                                 : 2 074 Kbps
Width                                    : 1 280 pixels
Height                                   : 536 pixels
Display aspect ratio                     : 2.40:1
Frame rate mode                          : Constant
Frame rate                               : 24.000 fps
Color space                              : YUV
Chroma subsampling                       : 4:2:0
Bit depth                                : 8 bits
Scan type                                : Progressive
Bits/(Pixel*Frame)                       : 0.126
Stream size                              : 1.49 GiB (57%)
Writing library                          : x264 core 155 r2901 7d0ff22
Encoding settings                        : cabac=1 / ref=5 / deblock=1:-2:-2 / analyse=0x3:0x133 / me=umh / subme=7 / psy=1 / psy_rd=1.00:0.00 / mixed_ref=1 / me_range=16 / chroma_me=1 / trellis=2 / 8x8dct=1 / cqm=0 / deadzone=21,11 / fast_pskip=0 / chroma_qp_offset=-2 / threads=12 / lookahead_threads=2 / sliced_threads=0 / nr=0 / decimate=1 / interlaced=0 / bluray_compat=0 / constrained_intra=0 / bframes=3 / b_pyramid=2 / b_adapt=1 / b_bias=0 / direct=1 / weightb=1 / open_gop=0 / weightp=1 / keyint=250 / keyint_min=24 / scenecut=40 / intra_refresh=0 / rc_lookahead=40 / rc=crf / mbtree=1 / crf=20.0 / qcomp=0.60 / qpmin=0 / qpmax=69 / qpstep=4 / ip_ratio=1.40 / aq=1:1.00
Default                                  : Yes
Forced                                   : No
DURATION                                 : 01:42:32.959000000
NUMBER_OF_FRAMES                         : 147671
NUMBER_OF_BYTES                          : 1649143017
_STATISTICS_WRITING_APP                  : mkvmerge v27.0.0 ('Metropolis') 64-bit
_STATISTICS_WRITING_DATE_UTC             : 2018-10-24 16:55:26
_STATISTICS_TAGS                         : BPS DURATION NUMBER_OF_FRAMES NUMBER_OF_BYTES

Audio
ID                                       : 2
Format                                   : DTS
Format/Info                              : Digital Theater Systems
Mode                                     : 16
Format settings, Endianness              : Big
Codec ID                                 : A_DTS
Duration                                 : 1h 42mn
Bit rate mode                            : Constant
Bit rate                                 : 1 509 Kbps
Channel(s)                               : 6 channels
Channel positions                        : Front: L C R, Side: L R, LFE
Sampling rate                            : 48.0 KHz
Bit depth                                : 24 bits
Compression mode                         : Lossy
Stream size                              : 1.08 GiB (41%)
Title                                    : German
Language                                 : German
Default                                  : Yes
Forced                                   : Yes

Text
ID                                       : 3
Format                                   : UTF-8
Codec ID                                 : S_TEXT/UTF8
Codec ID/Info                            : UTF-8 Plain Text
Title                                    : German forced
Language                                 : German
Default                                  : Yes
Forced                                   : Yes


Download:
Share Online Share OnlineShare OnlineShare Online
 

Kommentare