Filecrypt zeigt vereinzelt Files als "n/a". Die Downloads sind trotzdem komplett.

DNS SERVER AENDERNum der staatlichen Zensur zu umgehen. Sollten wir von eurem Provider geseprrt werden, nutzt den TOR BROWSER oder ändert euren DNS SERVER.

Filmwünsche können bei uns im Forum abgegeben werden

Wir Speichern Nicht




 
 
 
Top Releases
Operation.Red.Sea.2018.Germa...
Operation.Red.Sea.2018.Germa...
Mamma.Mia.Here.We.Go.Again.G...
Mamma.Mia.Here.We.Go.Again.G...
Unknown.Soldier.Kampf.ums.Va...
Unknown.Soldier.Kampf.ums.Va...
Gangstas.4.Life.2018.German....
Gangstas.4.Life.2018.German....
Gangstas.4.Life.2018.DUAL.CO...
Operation.Red.Sea.2018.MULTi...

Cinedubs
Die.unglaubliche.Reise.des.F...
Die.unglaubliche.Reise.des.F...
BlacKkKlansman.2018.GERMAN.D...
BlacKkKlansman.2018.GERMAN.D...
Mile.22.2018.German.AC3MD.DL...
Mile.22.2018.German.AC3MD.DL...
Die.Unglaublichen.2.German.D...
Die.Unglaublichen.2.German.D...
Blame.Verbotenes.Verlangen.G...
Blame.Verbotenes.Verlangen.G...

Neuerscheinungen 2017-18
The.Inhabitant.2017.GERMAN.7...
The.Inhabitant.2017.GERMAN.1...
Der.Koenig.meines.Herzens.20...
Der.Koenig.meines.Herzens.20...
Wolf.Mother.2016.German.720p...
Wolf.Mother.2016.German.DL.1...
Viking.Destiny.2018.German.D...
Viking.Destiny.2018.German.7...
The.School.Schule.des.Grauen...
The.School.Schule.des.Grauen...

XXX
CherryPimps.18.10.15.Isabell...
ClubSeventeen.18.10.13.Vanes...
CocksXL.18.10.13.Brenda.Star...
BurningAngel.18.10.17.Ivy.Le...
ClubSeventeen.18.10.17.Anna....
ATKGirlfriends.18.10.18.Rosa...
BrazzersExxtra.18.10.16.Gabr...
ATKGirlfriends.18.10.15.Ivy....
ClubSeventeen.18.10.18.Mila....
BrothaLovers.18.10.13.Angeli...
Cosmid.18.10.17.Sophia.Blake...
BigTitsRoundAsses.18.10.18.A...
Confessions.18.10.15.Molly.M...
BlacksOnBlondes.18.10.16.Avi...
CherryPimps.18.10.18.Emily.W...
BlackedRaw.18.10.14.Ivy.Lebe...
ClubSeventeen.18.10.16.Camil...
BoldlyGirls.18.10.14.Baby.Re...
ATKHairy.18.10.16.Dakota.Ros...
Clit.Licking.Girlfriends.XXX...

3D
Deep.3D.2017.MULTI.COMPLETE....
Detective.Dee.und.die.Legend...
Detective.Dee.und.die.Legend...
Skyscraper.3D.German.DL.AC3....
Ant-Man.and.the.Wasp.2018.3D...
Jurassic.World.Das.gefallene...
Jurassic.World.Das.gefallene...
Best.of.3D.vol.10.-.12.GERMA...
Die.Biene.Maja.2.Die.Honigsp...
Sharknado.6.The.Last.One.3D....
Solo.A.Star.Wars.Story.3D.20...
Solo.A.Star.Wars.Story.3D.20...
Die.Biene.Maja.2.Die.Honigsp...
Avengers.Infinity.War.3D.201...
Avengers.Infinity.War.3D.201...

Old_Stuff
Species.IV.Das.Erwachen.2007...
Species.IV.Das.Erwachen.2007...
Hotel.Transsilvanien.2012.Ge...
The.Dead.2010.German.DL.1080...
The.Dead.2.India.2013.German...
Britney.Spears.Live.The.Femm...
Buffy.The.Vampire.Slayer.199...
IMAX.Ride.Around.The.World.2...
Schimanski.-.Duisburg.Ruhror...
Akte.X.S02.German.DTS.DL.108...
How.I.Met.Your.Mother.S02.Ge...
Akte.X.S01.German.DTS.DL.108...
Den.Himmel.gibts.echt.DL.108...
Vikings.S02.German.DL.1080p....
Be.Kind.Rewind.Abgedreht.200...

Filme
Tanz.der.Teufel.2.1987.Germa...
Tanz.der.Teufel.2.1987.Germa...
Taxi.5.2018.German.720p.BluR...
Taxi.5.2018.German.1080p.Blu...
The.First.Purge.2018.German....
iZombie.S04.German.DD51.Dubb...
iZombie.S04.German.DD51.Dubb...
Mr.Mercedes.S02.COMPLETE.Ger...
Mr.Mercedes.S02.COMPLETE.Ger...
Krypton.S01.German.DD51.Dubb...
Music.Box.-.Die.ganze.Wahrhe...
Chilling.Adventures.Of.Sabri...
Sherlock.Holmes.cleverer.Bru...
Chilling.Adventures.of.Sabri...
Castlevania.S02.COMPLETE.GER...
Castlevania.S02.COMPLETE.GER...
Krypton.S01.GERMAN.DUBBED.72...
The.Outpost.S01.GERMAN.720p....
4.Blocks.S02.GERMAN.1080p.HD...
4.Blocks.S02.GERMAN.720p.HDT...
Mom.and.Dad.2017.GERMAN.DL.1...
Mamma.Mia.Here.We.Go.Again.2...
Red.Army.Hooligans.2018.Germ...
Ash.vs.Evil.Dead.S02D01.COMP...

 
 
Mamma.Mia.Here.We.Go.Again.German.DL.AC3.Dubbed.720p.BluRay.x264-PsO

Jahr: 2018
Genre: Komödie
Sprache: Deutsch AC3 | Englisch AC3
Laufzeit: 1h 53mn
Bitrate: 6 146 Kbps
Format: MKV
Größe: 4.88 GiB
Release:

Beschreibung:

Ein weiterer sonniger Tag neigt sich auf der griechischen Insel Kalokairi dem Ende, doch Sophie (Amanda Seyfried) macht sich trotzdem große Sorgen. Sie steht kurz vor der Eröffnung ihres Hotels Bella Donna, doch weder ihr Freund Sky (Dominic Cooper) noch ihre zwei Väter Harry (Colin Firth) und Bill (Stellan Skarsgard) können dabei sein. Nur Sam (Pierce Brosnan) ist nach den Ereignissen von Mamma Mia! auf der Insel geblieben und hat Sophie unterstützt. Wenigstens Tanya (Christine Baranski) und Rosie (Julie Walters) sind da, um Sophie unter die Arme zu greifen. Dabei schwelgen die drei in Erinnerungen an die wilden 1970er Jahre, als Sophies Mutter Donna (Lily James) die Bekanntschaft dreier Männer machte und schließlich schwanger wurde. Dabei fühlt sich Sophie ihrer Mutter näher als je zuvor, denn sie bekommt selbst bald ein Baby.

 


Und endlich auch nun mit Top Sound in 5.1!


Complete name                            : pso-mammamia2_bd.720p.mkv
Format                                   : Matroska
Format version                           : Version 4 / Version 2
File size                                : 4.88 GiB
Duration                                 : 1h 53mn
Overall bit rate                         : 6 146 Kbps
Encoded date                             : UTC 2018-10-25 01:08:04
Writing application                      : mkvmerge v8.0.0 ('Til The Day That I Die') 64bit
Writing library                          : libebml v1.3.1 + libmatroska v1.4.2
DURATION                                 : 01:51:53.760000000
NUMBER_OF_FRAMES                         : 479
NUMBER_OF_BYTES                          : 17578
_STATISTICS_WRITING_APP                  : mkvmerge v8.0.0 ('Til The Day That I Die') 64bit
_STATISTICS_WRITING_DATE_UTC             : 2018-10-25 01:08:04
_STATISTICS_TAGS                         : BPS DURATION NUMBER_OF_FRAMES NUMBER_OF_BYTES

Video
ID                                       : 1
Format                                   : AVC
Format/Info                              : Advanced Video Codec
Format profile                           : High@L4.1
Format settings, CABAC                   : Yes
Format settings, ReFrames                : 5 frames
Codec ID                                 : V_MPEG4/ISO/AVC
Duration                                 : 1h 53mn
Bit rate                                 : 4 864 Kbps
Width                                    : 1 280 pixels
Height                                   : 536 pixels
Display aspect ratio                     : 2.40:1
Frame rate mode                          : Constant
Frame rate                               : 23.976 fps
Color space                              : YUV
Chroma subsampling                       : 4:2:0
Bit depth                                : 8 bits
Scan type                                : Progressive
Bits/(Pixel*Frame)                       : 0.296
Stream size                              : 3.77 GiB (77%)
Writing library                          : x264 core 157 r2935 545de2f
Encoding settings                        : cabac=1 / ref=5 / deblock=1:-3:-3 / analyse=0x3:0x113 / me=umh / subme=8 / psy=1 / psy_rd=1.00:0.00 / mixed_ref=1 / me_range=16 / chroma_me=1 / trellis=1 / 8x8dct=1 / cqm=0 / deadzone=21,11 / fast_pskip=1 / chroma_qp_offset=-2 / threads=17 / lookahead_threads=2 / sliced_threads=0 / nr=0 / decimate=1 / interlaced=0 / bluray_compat=0 / constrained_intra=0 / bframes=3 / b_pyramid=2 / b_adapt=1 / b_bias=0 / direct=3 / weightb=1 / open_gop=0 / weightp=2 / keyint=250 / keyint_min=23 / scenecut=40 / intra_refresh=0 / rc_lookahead=50 / rc=2pass / mbtree=1 / bitrate=4864 / ratetol=1.0 / qcomp=0.60 / qpmin=0 / qpmax=69 / qpstep=4 / cplxblur=20.0 / qblur=0.5 / ip_ratio=1.40 / aq=1:1.00
Language                                 : English
Default                                  : Yes
Forced                                   : No
DURATION                                 : 01:53:39.688000000
NUMBER_OF_FRAMES                         : 163509
NUMBER_OF_BYTES                          : 4146271267
_STATISTICS_WRITING_APP                  : mkvmerge v8.0.0 ('Til The Day That I Die') 64bit
_STATISTICS_WRITING_DATE_UTC             : 2018-10-25 01:08:04
_STATISTICS_TAGS                         : BPS DURATION NUMBER_OF_FRAMES NUMBER_OF_BYTES

Audio #1
ID                                       : 2
Format                                   : AC-3
Format/Info                              : Audio Coding 3
Mode extension                           : CM (complete main)
Format settings, Endianness              : Big
Codec ID                                 : A_AC3
Duration                                 : 1h 53mn
Bit rate mode                            : Constant
Bit rate                                 : 640 Kbps
Channel(s)                               : 6 channels
Channel positions                        : Front: L C R, Side: L R, LFE
Sampling rate                            : 48.0 KHz
Bit depth                                : 16 bits
Compression mode                         : Lossy
Stream size                              : 520 MiB (10%)
Language                                 : German
Default                                  : Yes
Forced                                   : Yes

Audio #2
ID                                       : 3
Format                                   : AC-3
Format/Info                              : Audio Coding 3
Mode extension                           : CM (complete main)
Format settings, Endianness              : Big
Codec ID                                 : A_AC3
Duration                                 : 1h 53mn
Bit rate mode                            : Constant
Bit rate                                 : 640 Kbps
Channel(s)                               : 6 channels
Channel positions                        : Front: L C R, Side: L R, LFE
Sampling rate                            : 48.0 KHz
Bit depth                                : 16 bits
Compression mode                         : Lossy
Stream size                              : 520 MiB (10%)
Language                                 : English
Default                                  : No
Forced                                   : No

Text
ID                                       : 4
Format                                   : UTF-8
Codec ID                                 : S_TEXT/UTF8
Codec ID/Info                            : UTF-8 Plain Text
Title                                    : German forced Subs by PsO
Language                                 : German
Default                                  : Yes
Forced                                   : Yes


Download:
Share Online Share OnlineShare OnlineShare Online
 

Kommentare