Filecrypt zeigt vereinzelt Files als "n/a". Die Downloads sind trotzdem komplett.

DNS SERVER AENDERNum der staatlichen Zensur zu umgehen. Sollten wir von eurem Provider geseprrt werden, nutzt den TOR BROWSER oder ändert euren DNS SERVER.

Filmwünsche können bei uns im Forum abgegeben werden

Wir Speichern Nicht




 
 
 
Top Releases
Operation.Red.Sea.2018.Germa...
Operation.Red.Sea.2018.Germa...
Mamma.Mia.Here.We.Go.Again.G...
Mamma.Mia.Here.We.Go.Again.G...
Unknown.Soldier.Kampf.ums.Va...
Unknown.Soldier.Kampf.ums.Va...
Gangstas.4.Life.2018.German....
Gangstas.4.Life.2018.German....
Gangstas.4.Life.2018.DUAL.CO...
Operation.Red.Sea.2018.MULTi...

Cinedubs
Die.unglaubliche.Reise.des.F...
Die.unglaubliche.Reise.des.F...
BlacKkKlansman.2018.GERMAN.D...
BlacKkKlansman.2018.GERMAN.D...
Mile.22.2018.German.AC3MD.DL...
Mile.22.2018.German.AC3MD.DL...
Die.Unglaublichen.2.German.D...
Die.Unglaublichen.2.German.D...
Blame.Verbotenes.Verlangen.G...
Blame.Verbotenes.Verlangen.G...

Neuerscheinungen 2017-18
Pluto.Ein.Schutzengel.auf.vi...
Dinky.Sinky.2016.German.720p...
Dinky.Sinky.2016.German.1080...
Liebe.Heute.morgen.und.fuer....
Liebe.Heute.morgen.und.fuer....
LenaLove.2016.German.720p.WE...
LenaLove.2016.German.1080p.W...
The.Killer.BOOTLEG.GERMAN.19...
Deep.Kleine.Helden.der.Tiefs...
Deep.Kleine.Helden.der.Tiefs...

XXX
CherryPimps.18.10.15.Isabell...
ClubSeventeen.18.10.13.Vanes...
CocksXL.18.10.13.Brenda.Star...
BurningAngel.18.10.17.Ivy.Le...
ClubSeventeen.18.10.17.Anna....
ATKGirlfriends.18.10.18.Rosa...
BrazzersExxtra.18.10.16.Gabr...
ATKGirlfriends.18.10.15.Ivy....
ClubSeventeen.18.10.18.Mila....
BrothaLovers.18.10.13.Angeli...
Cosmid.18.10.17.Sophia.Blake...
BigTitsRoundAsses.18.10.18.A...
Confessions.18.10.15.Molly.M...
BlacksOnBlondes.18.10.16.Avi...
CherryPimps.18.10.18.Emily.W...
BlackedRaw.18.10.14.Ivy.Lebe...
ClubSeventeen.18.10.16.Camil...
BoldlyGirls.18.10.14.Baby.Re...
ATKHairy.18.10.16.Dakota.Ros...
Clit.Licking.Girlfriends.XXX...

3D
Deep.Kleine.Helden.der.Tiefs...
Deep.3D.2017.MULTI.COMPLETE....
Detective.Dee.und.die.Legend...
Detective.Dee.und.die.Legend...
Skyscraper.3D.German.DL.AC3....
Ant-Man.and.the.Wasp.2018.3D...
Jurassic.World.Das.gefallene...
Jurassic.World.Das.gefallene...
Best.of.3D.vol.10.-.12.GERMA...
Die.Biene.Maja.2.Die.Honigsp...
Sharknado.6.The.Last.One.3D....
Solo.A.Star.Wars.Story.3D.20...
Solo.A.Star.Wars.Story.3D.20...
Die.Biene.Maja.2.Die.Honigsp...
Avengers.Infinity.War.3D.201...

Old_Stuff
Species.IV.Das.Erwachen.2007...
Species.IV.Das.Erwachen.2007...
Hotel.Transsilvanien.2012.Ge...
The.Dead.2010.German.DL.1080...
The.Dead.2.India.2013.German...
Britney.Spears.Live.The.Femm...
Buffy.The.Vampire.Slayer.199...
IMAX.Ride.Around.The.World.2...
Schimanski.-.Duisburg.Ruhror...
Akte.X.S02.German.DTS.DL.108...
How.I.Met.Your.Mother.S02.Ge...
Akte.X.S01.German.DTS.DL.108...
Den.Himmel.gibts.echt.DL.108...
Vikings.S02.German.DL.1080p....
Be.Kind.Rewind.Abgedreht.200...

Filme
Tanz.der.Teufel.2.1987.Germa...
Tanz.der.Teufel.2.1987.Germa...
Taxi.5.2018.German.720p.BluR...
Taxi.5.2018.German.1080p.Blu...
The.First.Purge.2018.German....
iZombie.S04.German.DD51.Dubb...
iZombie.S04.German.DD51.Dubb...
Mr.Mercedes.S02.COMPLETE.Ger...
Mr.Mercedes.S02.COMPLETE.Ger...
Krypton.S01.German.DD51.Dubb...
Music.Box.-.Die.ganze.Wahrhe...
Chilling.Adventures.Of.Sabri...
Sherlock.Holmes.cleverer.Bru...
Chilling.Adventures.of.Sabri...
Castlevania.S02.COMPLETE.GER...
Castlevania.S02.COMPLETE.GER...
Krypton.S01.GERMAN.DUBBED.72...
The.Outpost.S01.GERMAN.720p....
4.Blocks.S02.GERMAN.1080p.HD...
4.Blocks.S02.GERMAN.720p.HDT...
Mom.and.Dad.2017.GERMAN.DL.1...
Mamma.Mia.Here.We.Go.Again.2...
Red.Army.Hooligans.2018.Germ...
Ash.vs.Evil.Dead.S02D01.COMP...

 
 
Dinky.Sinky.2016.German.1080p.BluRay.x264-ENCOUNTERS

Jahr: 2016
Genre: Komödie, Drama
Sprache: Deutsch DTS
Laufzeit: 1h 34mn
Bitrate: 7 629 Kbps
Format: MKV
Größe: 5.04 GiB
Release:

Beschreibung:

Frida (Katrin Röver) wünscht sich sehnlichst ein Kind. Doch ihre Sehnsucht erfüllt sich nicht, und dann läuft ihr auch noch der Mann davon. Während um sie herum ein regelrechter Babyboom ausbricht, verläuft ihr eigenes Leben vermeintlich rückwärts. Aber für Kummer bleibt keine Zeit. Sie ist 36 Jahre alt und der festen Überzeugung: jetzt oder nie. Es muss schnell ein neuer Lebenspartner her. Erst spät merkt Frida, dass die Jagd nach einem vermeintlich perfekten Leben nicht der Weg zum großen Glück ist. Eine unterhaltsame Gesellschaftsstudie der heutigen Mittdreißiger-Generation mit und ohne Kinder.



Complete name                            : encounters-dinkysinky_1080p.mkv
Format                                   : Matroska
Format version                           : Version 4 / Version 2
File size                                : 5.04 GiB
Duration                                 : 1h 34mn
Overall bit rate                         : 7 629 Kbps
Encoded date                             : UTC 2018-10-26 06:38:26
Writing application                      : mkvmerge v19.0.0 ('Brave Captain') 64-bit
Writing library                          : libebml v1.3.5 + libmatroska v1.4.8
DURATION                                 : 01:34:36.022000000
NUMBER_OF_FRAMES                         : 532127
NUMBER_OF_BYTES                          : 1070639592
_STATISTICS_WRITING_APP                  : mkvmerge v19.0.0 ('Brave Captain') 64-bit
_STATISTICS_WRITING_DATE_UTC             : 2018-10-26 06:38:26
_STATISTICS_TAGS                         : BPS DURATION NUMBER_OF_FRAMES NUMBER_OF_BYTES

Video
ID                                       : 1
Format                                   : AVC
Format/Info                              : Advanced Video Codec
Format profile                           : High@L4.1
Format settings, CABAC                   : Yes
Format settings, ReFrames                : 4 frames
Codec ID                                 : V_MPEG4/ISO/AVC
Duration                                 : 1h 34mn
Bit rate                                 : 5 968 Kbps
Width                                    : 1 920 pixels
Height                                   : 1 080 pixels
Display aspect ratio                     : 16:9
Frame rate mode                          : Constant
Frame rate                               : 24.000 fps
Color space                              : YUV
Chroma subsampling                       : 4:2:0
Bit depth                                : 8 bits
Scan type                                : Progressive
Bits/(Pixel*Frame)                       : 0.120
Stream size                              : 3.94 GiB (78%)
Writing library                          : x264 core 157 r2935 545de2f
Encoding settings                        : cabac=1 / ref=4 / deblock=1:-1:-1 / analyse=0x3:0x133 / me=umh / subme=7 / psy=1 / psy_rd=1.00:0.15 / mixed_ref=1 / me_range=16 / chroma_me=1 / trellis=1 / 8x8dct=1 / cqm=0 / deadzone=21,11 / fast_pskip=0 / chroma_qp_offset=-3 / threads=16 / lookahead_threads=2 / sliced_threads=0 / nr=0 / decimate=1 / interlaced=0 / bluray_compat=0 / constrained_intra=0 / bframes=3 / b_pyramid=2 / b_adapt=1 / b_bias=0 / direct=1 / weightb=1 / open_gop=0 / weightp=2 / keyint=250 / keyint_min=24 / scenecut=40 / intra_refresh=0 / rc_lookahead=40 / rc=crf / mbtree=1 / crf=20.0 / qcomp=0.60 / qpmin=0 / qpmax=69 / qpstep=4 / ip_ratio=1.40 / aq=1:1.00
Default                                  : Yes
Forced                                   : No

Audio
ID                                       : 2
Format                                   : DTS
Format/Info                              : Digital Theater Systems
Mode                                     : 16
Format settings, Endianness              : Big
Codec ID                                 : A_DTS
Duration                                 : 1h 34mn
Bit rate mode                            : Constant
Bit rate                                 : 1 509 Kbps
Channel(s)                               : 6 channels
Channel positions                        : Front: L C R, Side: L R, LFE
Sampling rate                            : 48.0 KHz
Bit depth                                : 24 bits
Compression mode                         : Lossy
Stream size                              : 1 021 MiB (20%)
Language                                 : German
Default                                  : Yes
Forced                                   : No


Download:
Share Online Share OnlineShare OnlineShare Online
 

Kommentare