Filecrypt zeigt vereinzelt Files als "n/a". Die Downloads sind trotzdem komplett.

DNS SERVER AENDERNum der staatlichen Zensur zu umgehen. Sollten wir von eurem Provider geseprrt werden, nutzt den TOR BROWSER oder ändert euren DNS SERVER.

Filmwünsche können bei uns im Forum abgegeben werden

Wir Speichern Nicht




 
 
 
Top Releases
Z.for.Zachariah.2015.German....
Monsieur.Claude.und.seine.To...
House.of.Sand.and.Fog.2003.G...
Hotel.Transsilvanien.3.Ein.M...
Hotel.Transsilvanien.3.Ein.M...
Jim.Knopf.und.Lukas.der.Loko...
Pin.Cushion.2017.MULTi.COMPL...
Hotel.Transsilvanien.3.Ein.M...
Le.Jeu.Nichts.zu.verbergen.2...
Sicario.2.Soldado.Sicario.Da...

Cinedubs
Venom.German.DL.AC3.Dubbed.1...
Venom.German.DL.AC3.Dubbed.7...
Das.Haus.der.geheimnisvollen...
Das.Haus.der.geheimnisvollen...
Venom.TS.LD.German.720p.x264...
Predator.Upgrade.German.AC3L...
Predator.Upgrade.German.AC3L...
The.Nun.German.DL.AC3.Dubbed...
The.Nun.German.DL.AC3.Dubbed...
The.Happytime.Murders.Kein.S...

Neuerscheinungen 2017-18
Liliane.Susewind.Ein.tierisc...
Liliane.Susewind.Ein.tierisc...
Unhinged.2017.COMPLETE.BLURA...
Unhinged.Verstoert.und.Ausge...
Unhinged.Verstoert.und.Ausge...
School.Daze.1988.COMPLETE.BL...
Megalodon.2018.COMPLETE.BLUR...
Megalodon.Die.Bestie.aus.der...
Megalodon.Die.Bestie.aus.der...
Gotti.2018.German.DL.AC3.5.1...

XXX
Naughty.3.Somes.13.XXX.720p....
Naughty.3.Somes.13.XXX.1080p...
Hitzefrei.18.07.02.Sina.Velv...
PornFidelity.E769.Layla.Love...
Hegre.18.11.20.Nuna.Nude.In....
PublicAgent.18.11.20.May.Tha...
PornMegaLoad.18.11.19.Brandy...
Hitzefrei.18.07.04.Texas.Pat...
Private.18.11.19.Dolly.Diore...
Nubiles.18.11.20.Sophie.Spar...
PornMegaLoad.18.11.18.Lexi.S...
PublicPickUps.18.11.20.Jazmi...
POVLife.18.11.19.Riley.Star....
PlayboyPlus.18.11.19.Anetta....
Private.18.11.20.Jessica.Lin...
SapphicErotica.18.11.19.Anai...
PornstarsLikeItBig.18.11.19....
GloryHole.18.11.19.Barbie.Si...
PlumperPass.18.11.19.Alexxxi...
RKPrime.18.11.19.Brett.Rossi...

3D
The.Art.of.Flight.3D.2011.Ge...
The.End.Of.The.World.3D.2010...
The.First.Avenger.Civil.War....
Die.Unglaublichen.2.2018.3D....
Skyscraper.3D.2018.MULTi.COM...
Ant-Man.And.The.Wasp.3D.2018...
Ant.Man.and.the.Wasp.3D.2018...
Die.Unglaublichen.2.3D.2018....
Die.Unglaublichen.2.2018.3D....
Die.Unglaublichen.2.2018.3D....
Sharknado.6.The.Last.One.3D....
Deep.Kleine.Helden.der.Tiefs...
Deep.3D.2017.MULTI.COMPLETE....
Detective.Dee.und.die.Legend...
Detective.Dee.und.die.Legend...

Old_Stuff
Akte.X.S03.German.DTS.DL.108...
Dunkirk.1958.COMPLETE.BLURAY...
Das.Wunder.von.Manhattan.199...
The.Amazing.Spiderman.2.Rise...
Rise.of.the.Predator.2014.Ge...
Detective.Dee.und.das.Geheim...
Detective.Dee.Und.Der.Fluch....
Ghost.Rider.Spirit.of.Vengea...
Species.IV.Das.Erwachen.2007...
Species.IV.Das.Erwachen.2007...
Hotel.Transsilvanien.2012.Ge...
The.Dead.2010.German.DL.1080...
The.Dead.2.India.2013.German...
Britney.Spears.Live.The.Femm...
Buffy.The.Vampire.Slayer.199...

Filme
Our.Evil.2017.German.AC3.DL....
Hass.aka.La.Haine.1995.Germa...
The.Game.1997.German.DL.1080...
Versus.The.Final.Knockout.20...
Hoelle.Afghanistan.2011.Germ...
Hoffnung.und.Ruhm.1987.Germa...
Sicario.2.Soldado.2018.Germa...
Skin.Creepers.2018.German.AC...
Auch.Voegel.koennen.toeten.1...
Roter.Drache.2002.German.DL....
Sicario.2.Soldado.2018.Germa...
Mondsuechtig.1987.German.AC3...
Baron.Noir.S02D01-2.MULTi.CO...
Stirb.Langsam.2.1990.DTS-HD....
Ash.vs.Evil.Dead.S02D01-2.MU...
Das.ist.Weihnachten.2013.Ger...
NCIS.S15.COMPLETE.German.AC...
Fantastic.Four.-.Rise.of.the...
Staatsfeind.Nr.1.Extended.Cu...
Snatch.S02.German.DL.DUBBED....
Snatch.S02.German.DL.DUBBED....
The.Walking.Dead.S09.GERMAN....
Vive.la.France.gesprengt.wir...
Killers.2014.German.DTS.1080...

 
 
Liliane.Susewind.Ein.tierisches.Abenteuer.2018.GERMAN.720p.BluRay.x264-UNiVERSUM

Jahr: 2018
Genre: Komödie, Fantasy
Sprache: Deutsch DTS
Laufzeit: 1h 36mn
Bitrate: 4 275 Kbps
Format: MKV
Größe: 2.89 GiB
Release:

Beschreibung:

Die elfjährige Liliane Susewind (Malu Leicher), genannt Lilli, hat eine außergewöhnliche Fähigkeit: Sie kann mit Tieren sprechen. Diese besondere Gabe hat Lilli bis jetzt allerdings immer nur in Schwierigkeiten gebracht. Als ein Stadtfest wegen ihrer Fähigkeiten komplett im Chaos versinkt, muss sie mit ihren Eltern Regina (Peri Baumeister) und Ferdinand (Tom Beck) und ihrem Hund Bonsai umziehen. In der neuen Stadt schwört Lilli, ihr Geheimnis für sich zu behalten. Doch dann macht ein gemeiner Tierdieb den städtischen Zoo, in dem Zoodirektorin Oberst Essig (Meret Becker) mit dem gutmütigen Tierpfleger Toni (Christoph Maria Herbst) arbeitet, unsicher – und Tonis berechnende Freundin, die aufgetakelte Vanessa (Aylin Tezel), spielt ein falsches Spiel. Nur Lilli kann – unterstützt vom Nachbarsjungen Jess (Aaron Kissiov) – helfen, Babyelefant Ronni und die anderen Tiere zu retten. Das Abenteuer kann beginnen.



Complete name                            : liliane.susewind.ein.tierisches.abenteuer.2018.german.720p.bluray.x264-universum.mkv
Format                                   : Matroska
Format version                           : Version 4 / Version 2
File size                                : 2.89 GiB
Duration                                 : 1h 36mn
Overall bit rate                         : 4 275 Kbps
Encoded date                             : UTC 2018-11-28 15:02:17
Writing application                      : mkvmerge v7.9.0 ('Birds') 64bit
Writing library                          : libebml v1.3.1 + libmatroska v1.4.2
DURATION                                 : 01:36:46.080000000
NUMBER_OF_FRAMES                         : 544320
NUMBER_OF_BYTES                          : 1095171840
_STATISTICS_WRITING_APP                  : mkvmerge v7.9.0 ('Birds') 64bit
_STATISTICS_WRITING_DATE_UTC             : 2018-11-28 15:02:17
_STATISTICS_TAGS                         : BPS DURATION NUMBER_OF_FRAMES NUMBER_OF_BYTES

Video
ID                                       : 1
Format                                   : AVC
Format/Info                              : Advanced Video Codec
Format profile                           : High@L4.1
Format settings, CABAC                   : Yes
Format settings, ReFrames                : 5 frames
Codec ID                                 : V_MPEG4/ISO/AVC
Duration                                 : 1h 36mn
Bit rate                                 : 2 681 Kbps
Width                                    : 1 280 pixels
Height                                   : 536 pixels
Display aspect ratio                     : 2.40:1
Frame rate mode                          : Constant
Frame rate                               : 25.000 fps
Color space                              : YUV
Chroma subsampling                       : 4:2:0
Bit depth                                : 8 bits
Scan type                                : Progressive
Bits/(Pixel*Frame)                       : 0.156
Stream size                              : 1.81 GiB (63%)
Writing library                          : x264 core 157 r2935 545de2f
Encoding settings                        : cabac=1 / ref=5 / deblock=1:-1:-1 / analyse=0x3:0x133 / me=umh / subme=8 / psy=1 / psy_rd=1.00:0.15 / mixed_ref=1 / me_range=16 / chroma_me=1 / trellis=2 / 8x8dct=1 / cqm=0 / deadzone=21,11 / fast_pskip=0 / chroma_qp_offset=-3 / threads=17 / lookahead_threads=2 / sliced_threads=0 / nr=0 / decimate=1 / interlaced=0 / bluray_compat=0 / constrained_intra=0 / bframes=3 / b_pyramid=2 / b_adapt=1 / b_bias=0 / direct=3 / weightb=1 / open_gop=0 / weightp=2 / keyint=250 / keyint_min=25 / scenecut=40 / intra_refresh=0 / rc_lookahead=40 / rc=crf / mbtree=1 / crf=20.0 / qcomp=0.60 / qpmin=10 / qpmax=69 / qpstep=4 / ip_ratio=1.40 / aq=1:1.00
Language                                 : German
Default                                  : Yes
Forced                                   : No
DURATION                                 : 01:36:46.080000000
NUMBER_OF_FRAMES                         : 145152
NUMBER_OF_BYTES                          : 2005610449
_STATISTICS_WRITING_APP                  : mkvmerge v7.9.0 ('Birds') 64bit
_STATISTICS_WRITING_DATE_UTC             : 2018-11-28 15:02:17
_STATISTICS_TAGS                         : BPS DURATION NUMBER_OF_FRAMES NUMBER_OF_BYTES

Audio
ID                                       : 2
Format                                   : DTS
Format/Info                              : Digital Theater Systems
Mode                                     : 16
Format settings, Endianness              : Big
Codec ID                                 : A_DTS
Duration                                 : 1h 36mn
Bit rate mode                            : Constant
Bit rate                                 : 1 509 Kbps
Channel(s)                               : 6 channels
Channel positions                        : Front: L C R, Side: L R, LFE
Sampling rate                            : 48.0 KHz
Bit depth                                : 24 bits
Compression mode                         : Lossy
Stream size                              : 1.02 GiB (35%)
Title                                    : DTS
Language                                 : German
Default                                  : Yes
Forced                                   : No


Download:
Share Online Share OnlineShare OnlineShare Online
 

Kommentare