Filecrypt zeigt vereinzelt Files als "n/a". Die Downloads sind trotzdem komplett.

DNS SERVER AENDERNum der staatlichen Zensur zu umgehen. Sollten wir von eurem Provider geseprrt werden, nutzt den TOR BROWSER oder ändert euren DNS SERVER.

Filmwünsche können bei uns im Forum abgegeben werden

Wir Speichern Nicht




 
 
 
Top Releases
Christopher.Robin.2018.Germa...
Christopher.Robin.2018.Germa...
Pin.Cushion.2017.German.720p...
Pin.Cushion.2017.German.DL.1...
Z.for.Zachariah.2015.German....
Monsieur.Claude.und.seine.To...
House.of.Sand.and.Fog.2003.G...
Hotel.Transsilvanien.3.Ein.M...
Hotel.Transsilvanien.3.Ein.M...
Jim.Knopf.und.Lukas.der.Loko...

Cinedubs
Freaky.Friday.German.DL.AC3....
Freaky.Friday.German.DL.AC3....
Jupiters.Moon.2017.GERMAN.AC...
Jupiters.Moon.2017.GERMAN.AC...
Venom.German.DL.AC3.Dubbed.1...
Venom.German.DL.AC3.Dubbed.7...
Das.Haus.der.geheimnisvollen...
Das.Haus.der.geheimnisvollen...
Venom.TS.LD.German.720p.x264...
Predator.Upgrade.German.AC3L...

Neuerscheinungen 2017-18
Jeepers.Creepers.II.2003.DUA...
Liliane.Susewind.Ein.tierisc...
Boarding.School.2018.German....
Liliane.Susewind.Ein.tierisc...
Liliane.Susewind.Ein.tierisc...
Unhinged.2017.COMPLETE.BLURA...
Unhinged.Verstoert.und.Ausge...
Unhinged.Verstoert.und.Ausge...
School.Daze.1988.COMPLETE.BL...
Megalodon.2018.COMPLETE.BLUR...

XXX
Bang.That.Ass.XXX.720p.WEBRi...
Bang.That.Ass.XXX.1080p.WEBR...
SugarCookie.18.05.29.Jimena....
SweetheartVideo.Wifey.XXX.72...
ATKHairy.18.11.19.Kahlista.S...
Sweet18.18.11.19.Liv.Revampe...
SweetheartVideo.18.11.19.Mer...
Twistys.18.11.19.Eliza.Ibarr...
SugarCookie.18.05.27.Stefani...
Bang.RealTeens.18.11.19.Harm...
TrueAnal.18.11.19.Gia.Paige....
TakeVan.18.11.19.Sophie.A.Gi...
SugarCookie.18.05.14.Jimena....
SugarCookie.18.05.02.Frida.S...
SugarCookie.18.05.01.Stefani...
Hitzefrei.18.07.13.Texas.Pat...
ThirdMovies.18.11.17.Alexa.N...
ThirdMovies.18.11.19.Karlee....
TheLifeErotic.18.11.20.Aranx...
Hitzefrei.18.07.11.Sina.Velv...

3D
The.Art.of.Flight.3D.2011.Ge...
The.End.Of.The.World.3D.2010...
The.First.Avenger.Civil.War....
Die.Unglaublichen.2.2018.3D....
Skyscraper.3D.2018.MULTi.COM...
Ant-Man.And.The.Wasp.3D.2018...
Ant.Man.and.the.Wasp.3D.2018...
Die.Unglaublichen.2.3D.2018....
Die.Unglaublichen.2.2018.3D....
Die.Unglaublichen.2.2018.3D....
Sharknado.6.The.Last.One.3D....
Deep.Kleine.Helden.der.Tiefs...
Deep.3D.2017.MULTI.COMPLETE....
Detective.Dee.und.die.Legend...
Detective.Dee.und.die.Legend...

Old_Stuff
Akte.X.S03.German.DTS.DL.108...
Dunkirk.1958.COMPLETE.BLURAY...
Das.Wunder.von.Manhattan.199...
The.Amazing.Spiderman.2.Rise...
Rise.of.the.Predator.2014.Ge...
Detective.Dee.und.das.Geheim...
Detective.Dee.Und.Der.Fluch....
Ghost.Rider.Spirit.of.Vengea...
Species.IV.Das.Erwachen.2007...
Species.IV.Das.Erwachen.2007...
Hotel.Transsilvanien.2012.Ge...
The.Dead.2010.German.DL.1080...
The.Dead.2.India.2013.German...
Britney.Spears.Live.The.Femm...
Buffy.The.Vampire.Slayer.199...

Filme
Overdrive.2017.German.DTS.DL...
Pin.Cushion.2017.German.DTS....
Die.nackten.Tatsachen.1967.G...
Bent.Korruption.kennt.keine....
Small.Town.Killers.2017.Germ...
Ghostbusters.II.1989.DTS-HD....
Die.Maerchenbraut.1979.Germa...
Mean.Dreams.2016.German.DTS....
Flying.Fortress.B17.Luftkrie...
Frenemy.2009.German.DL.1080p...
The.Predator.2018.German.AC3...
Baby.Driver.2017.German.DTS....
Vendetta.Alles.was.ihm.blieb...
Arrow.S06.GERMAN.DL.1080p.HD...
Arrow.S06.GERMAN.DL.720p.HDT...
Star.Trek.Discovery.S01.COMP...
The.Deuce.S02.COMPLETE.Germa...
Hotel.Transsilvanien.3.Ein.M...
Star.Trek.Discovery.S01.COMP...
Dinosaurier.Im.Reich.der.Gig...
The.Good.Doctor.S02.German.D...
The.Good.Doctor.S02.German.D...
Poldark.2015.S04.German.DL.D...
Poldark.2015.S04.German.DL.D...

 
 
Overdrive.2017.German.DTS.DL.1080p.BluRay.x264-LeetHD

Jahr: 2017
Genre: Action, Thriller
Sprache: Deutsch DTS | Englisch DTS
Laufzeit: 1h 34mn
Bitrate: 10.4 Mbps
Format: MKV
Größe: 6.83 GiB
Release:

Beschreibung:

Andrew und Garrett Foster sind als Autodiebe Meister ihres Fachs. Dabei haben sie es aber nicht auf irgendwelche Autos abgesehen, sondern lediglich auf die ganz exklusiven und hochpreisigen Sammlerstücke. Als eingespieltes Team kennt ihre Abenteuerlust und Risikobereitschaft keine Grenzen. Auf der Suche nach neuen Herausforderungen an der Französischen Riviera geraten sie jedoch mit dem lokalen Gangster Jacomo Morier in Konflikt, dessen ebenso rare wie unbezahlbare Autokollektion als Beute lockt. Doch Morier entpuppt sich als unberechenbarer Gegenspieler: Die beiden Brüder sollen ihr begnadetes Talent unter Beweis stellen, indem sie ihm in kürzester Zeit ein besonderes Auto seines Erzfeindes Max Klemp organisieren. Ein Wettlauf gegen die Zeit mit überraschenden Wendungen und viel Adrenalin beginnt Französischer Actionfilm über zwei Brüder, die sich auf das Knacken von Luxuskarossen spezialisiert haben und zwischen die Fronten eines Mafiakrieges geraten.



Complete name                            : lhd-overdrive-1080p.mkv
Format                                   : Matroska
Format version                           : Version 2
File size                                : 6.83 GiB
Duration                                 : 1h 34mn
Overall bit rate                         : 10.4 Mbps
Encoded date                             : UTC 2017-11-06 11:14:53
Writing application                      : mkvmerge v17.0.0 ('Be Ur Friend') 64-bit
Writing library                          : libebml v1.3.5 + libmatroska v1.4.8
DURATION                                 : 01:15:31.000000000
NUMBER_OF_FRAMES                         : 31
NUMBER_OF_BYTES                          : 524
_STATISTICS_WRITING_APP                  : mkvmerge v17.0.0 ('Be Ur Friend') 64-bit
_STATISTICS_WRITING_DATE_UTC             : 2017-11-06 11:14:53
_STATISTICS_TAGS                         : BPS DURATION NUMBER_OF_FRAMES NUMBER_OF_BYTES

Video
ID                                       : 1
Format                                   : AVC
Format/Info                              : Advanced Video Codec
Format profile                           : High@L4.1
Format settings, CABAC                   : Yes
Format settings, ReFrames                : 5 frames
Codec ID                                 : V_MPEG4/ISO/AVC
Duration                                 : 1h 34mn
Bit rate                                 : 7 167 Kbps
Width                                    : 1 920 pixels
Height                                   : 804 pixels
Display aspect ratio                     : 2.40:1
Frame rate mode                          : Constant
Frame rate                               : 24.000 fps
Color space                              : YUV
Chroma subsampling                       : 4:2:0
Bit depth                                : 8 bits
Scan type                                : Progressive
Bits/(Pixel*Frame)                       : 0.193
Stream size                              : 4.71 GiB (69%)
Writing library                          : x264 core 152 r2851 ba24899
Encoding settings                        : cabac=1 / ref=5 / deblock=1:-1:-1 / analyse=0x3:0x113 / me=umh / subme=8 / psy=1 / psy_rd=0.99:0.01 / mixed_ref=1 / me_range=16 / chroma_me=1 / trellis=1 / 8x8dct=1 / cqm=0 / deadzone=21,11 / fast_pskip=0 / chroma_qp_offset=-3 / threads=12 / lookahead_threads=2 / sliced_threads=0 / nr=0 / decimate=1 / interlaced=0 / bluray_compat=0 / constrained_intra=0 / bframes=3 / b_pyramid=2 / b_adapt=2 / b_bias=0 / direct=3 / weightb=1 / open_gop=0 / weightp=2 / keyint=240 / keyint_min=24 / scenecut=40 / intra_refresh=0 / rc_lookahead=40 / rc=crf / mbtree=1 / crf=18.0 / qcomp=0.60 / qpmin=0 / qpmax=69 / qpstep=4 / vbv_maxrate=62500 / vbv_bufsize=78125 / crf_max=0.0 / nal_hrd=none / filler=0 / ip_ratio=1.40 / aq=1:1.00
Default                                  : Yes
Forced                                   : No

Audio #1
ID                                       : 2
Format                                   : DTS
Format/Info                              : Digital Theater Systems
Mode                                     : 16
Format settings, Endianness              : Big
Codec ID                                 : A_DTS
Duration                                 : 1h 34mn
Bit rate mode                            : Constant
Bit rate                                 : 1 509 Kbps
Channel(s)                               : 6 channels
Channel positions                        : Front: L C R, Side: L R, LFE
Sampling rate                            : 48.0 KHz
Bit depth                                : 24 bits
Compression mode                         : Lossy
Stream size                              : 1 016 MiB (15%)
Language                                 : German
Default                                  : Yes
Forced                                   : No

Audio #2
ID                                       : 3
Format                                   : DTS
Format/Info                              : Digital Theater Systems
Mode                                     : 16
Format settings, Endianness              : Big
Codec ID                                 : A_DTS
Duration                                 : 1h 34mn
Bit rate mode                            : Constant
Bit rate                                 : 1 509 Kbps
Channel(s)                               : 6 channels
Channel positions                        : Front: L C R, Side: L R, LFE
Sampling rate                            : 48.0 KHz
Bit depth                                : 24 bits
Compression mode                         : Lossy
Stream size                              : 1 016 MiB (15%)
Language                                 : English
Default                                  : No
Forced                                   : No

Text #1
ID                                       : 4
Format                                   : UTF-8
Codec ID                                 : S_TEXT/UTF8
Codec ID/Info                            : UTF-8 Plain Text
Language                                 : German
Default                                  : Yes
Forced                                   : Yes

Text #2
ID                                       : 5
Format                                   : VobSub
Muxing mode                              : zlib
Codec ID                                 : S_VOBSUB
Codec ID/Info                            : The same subtitle format used on DVDs
Title                                    : complete
Language                                 : German
Default                                  : No
Forced                                   : No

Text #3
ID                                       : 6
Format                                   : UTF-8
Codec ID                                 : S_TEXT/UTF8
Codec ID/Info                            : UTF-8 Plain Text
Title                                    : forced
Language                                 : English
Default                                  : No
Forced                                   : No


Download:
Share Online Share OnlineShare OnlineShare Online
 

Kommentare