Filecrypt zeigt vereinzelt Files als "n/a". Die Downloads sind trotzdem komplett.

DNS SERVER AENDERNum der staatlichen Zensur zu umgehen. Sollten wir von eurem Provider geseprrt werden, nutzt den TOR BROWSER oder ändert euren DNS SERVER.

Filmwünsche können bei uns im Forum abgegeben werden

Wir Speichern Nicht




 
 
 
Top Releases
Predator.Upgrade.German.DL.A...
Predator.Upgrade.German.DL.A...
Better.Watch.Out.2016.German...
Destination.Wedding.2018.Ger...
Destination.Wedding.2018.Ger...
Schneefloeckchen.GERMAN.2017...
Schneefloeckchen.GERMAN.2017...
Christopher.Robin.2018.Germa...
Christopher.Robin.2018.Germa...
Pin.Cushion.2017.German.720p...

Cinedubs
Halloween.German.DL.AC3.Dubb...
Halloween.German.DL.AC3.Dubb...
Freaky.Friday.German.DL.AC3....
Freaky.Friday.German.DL.AC3....
Jupiters.Moon.2017.GERMAN.AC...
Jupiters.Moon.2017.GERMAN.AC...
Venom.German.DL.AC3.Dubbed.1...
Venom.German.DL.AC3.Dubbed.7...
Das.Haus.der.geheimnisvollen...
Das.Haus.der.geheimnisvollen...

Neuerscheinungen 2017-18
Jeepers.Creepers.II.2003.DUA...
Liliane.Susewind.Ein.tierisc...
Boarding.School.2018.German....
Liliane.Susewind.Ein.tierisc...
Liliane.Susewind.Ein.tierisc...
Unhinged.2017.COMPLETE.BLURA...
Unhinged.Verstoert.und.Ausge...
Unhinged.Verstoert.und.Ausge...
School.Daze.1988.COMPLETE.BL...
Megalodon.2018.COMPLETE.BLUR...

XXX
Bang.That.Ass.XXX.720p.WEBRi...
Bang.That.Ass.XXX.1080p.WEBR...
SugarCookie.18.05.29.Jimena....
SweetheartVideo.Wifey.XXX.72...
ATKHairy.18.11.19.Kahlista.S...
Sweet18.18.11.19.Liv.Revampe...
SweetheartVideo.18.11.19.Mer...
Twistys.18.11.19.Eliza.Ibarr...
SugarCookie.18.05.27.Stefani...
Bang.RealTeens.18.11.19.Harm...
TrueAnal.18.11.19.Gia.Paige....
TakeVan.18.11.19.Sophie.A.Gi...
SugarCookie.18.05.14.Jimena....
SugarCookie.18.05.02.Frida.S...
SugarCookie.18.05.01.Stefani...
Hitzefrei.18.07.13.Texas.Pat...
ThirdMovies.18.11.17.Alexa.N...
ThirdMovies.18.11.19.Karlee....
TheLifeErotic.18.11.20.Aranx...
Hitzefrei.18.07.11.Sina.Velv...

3D
The.Art.of.Flight.3D.2011.Ge...
The.End.Of.The.World.3D.2010...
The.First.Avenger.Civil.War....
Die.Unglaublichen.2.2018.3D....
Skyscraper.3D.2018.MULTi.COM...
Ant-Man.And.The.Wasp.3D.2018...
Ant.Man.and.the.Wasp.3D.2018...
Die.Unglaublichen.2.3D.2018....
Die.Unglaublichen.2.2018.3D....
Die.Unglaublichen.2.2018.3D....
Sharknado.6.The.Last.One.3D....
Deep.Kleine.Helden.der.Tiefs...
Deep.3D.2017.MULTI.COMPLETE....
Detective.Dee.und.die.Legend...
Detective.Dee.und.die.Legend...

Old_Stuff
Akte.X.S03.German.DTS.DL.108...
Dunkirk.1958.COMPLETE.BLURAY...
Das.Wunder.von.Manhattan.199...
The.Amazing.Spiderman.2.Rise...
Rise.of.the.Predator.2014.Ge...
Detective.Dee.und.das.Geheim...
Detective.Dee.Und.Der.Fluch....
Ghost.Rider.Spirit.of.Vengea...
Species.IV.Das.Erwachen.2007...
Species.IV.Das.Erwachen.2007...
Hotel.Transsilvanien.2012.Ge...
The.Dead.2010.German.DL.1080...
The.Dead.2.India.2013.German...
Britney.Spears.Live.The.Femm...
Buffy.The.Vampire.Slayer.199...

Filme
Vikings.S05.GERMAN.720p.WebH...
Echoes.Stimmen.aus.der.Zwisc...
Curve.2015.German.DL.AC3.108...
Willkommen.zu.Hause.Roscoe.J...
Wrecked.-.Voll.abgestuerzt.S...
The.Gifted.S02.GERMAN.DL.108...
The.Gifted.S02.GERMAN.720p.H...
Bonjour.Tristesse.1958.Germa...
Mord.im.Orient.Express.1974....
The.Cheerleaders.1973.German...
Midnight.Heat.Eine.moerderis...
Overdrive.2017.German.DTS.DL...
Pin.Cushion.2017.German.DTS....
Die.nackten.Tatsachen.1967.G...
Bent.Korruption.kennt.keine....
Small.Town.Killers.2017.Germ...
Ghostbusters.II.1989.DTS-HD....
Die.Maerchenbraut.1979.Germa...
Mean.Dreams.2016.German.DTS....
Flying.Fortress.B17.Luftkrie...
Frenemy.2009.German.DL.1080p...
The.Predator.2018.German.AC3...
Baby.Driver.2017.German.DTS....
Vendetta.Alles.was.ihm.blieb...

 
 
Destination.Wedding.2018.German.DL.1080p.BluRay.x264-ENCOUNTERS

Jahr: 2018
Genre: Komödie
Sprache: Deutsch DTS | Englisch DTS
Laufzeit: 1h 26mn
Bitrate: 6 267 Kbps
Format: MKV
Größe: 3.79 GiB
Release:

Beschreibung:

Frank (Keanu Reeves) und Lindsay (Winona Ryder) lernen sich am Flughafen kennen und können sich auf Anhieb nicht leiden. Noch schlimmer wird es, als sie feststellen, dass sie nicht nur im selben Flugzeug reisen werden, sondern auch dasselbe Ziel haben! Sie sind unterwegs zu einer Hochzeit in den paradiesischen Weinbergen Kaliforniens, haben jedoch herzlich wenig Lust. Lindsay ist eine Ex des Bräutigams, Frank ein entfernter Verwandter, der wohl nur auf Höflichkeit eingeladen wurde. Die Vorstellung, mehrere Tage lang den ganzen romantischen Heiratszirkus ertragen zu müssen, ist ihnen ein Graus. Und bald schon überwiegt diese neugefundene Gemeinsamkeit über die anfängliche Abneigung: Die beiden emotional etwas angeknacksten Einzelgänger tun sich zusammen, um das Hochzeits-Wochenende zu überstehen, und stellen schnell fest, dass sie sich sympathischer sind als zunächst gedacht…



Complete name                            : encounters-dewe_1080p.mkv
Format                                   : Matroska
Format version                           : Version 4 / Version 2
File size                                : 3.79 GiB
Duration                                 : 1h 26mn
Overall bit rate                         : 6 267 Kbps
Encoded date                             : UTC 2018-11-29 07:51:28
Writing application                      : mkvmerge v19.0.0 ('Brave Captain') 64-bit
Writing library                          : libebml v1.3.5 + libmatroska v1.4.8
DURATION                                 : 01:20:59.417000000
NUMBER_OF_FRAMES                         : 10
NUMBER_OF_BYTES                          : 266
_STATISTICS_WRITING_APP                  : mkvmerge v19.0.0 ('Brave Captain') 64-bit
_STATISTICS_WRITING_DATE_UTC             : 2018-11-29 07:51:28
_STATISTICS_TAGS                         : BPS DURATION NUMBER_OF_FRAMES NUMBER_OF_BYTES

Video
ID                                       : 1
Format                                   : AVC
Format/Info                              : Advanced Video Codec
Format profile                           : High@L4.1
Format settings, CABAC                   : Yes
Format settings, ReFrames                : 5 frames
Codec ID                                 : V_MPEG4/ISO/AVC
Duration                                 : 1h 26mn
Bit rate                                 : 3 124 Kbps
Width                                    : 1 920 pixels
Height                                   : 808 pixels
Display aspect ratio                     : 2.40:1
Frame rate mode                          : Constant
Frame rate                               : 24.000 fps
Color space                              : YUV
Chroma subsampling                       : 4:2:0
Bit depth                                : 8 bits
Scan type                                : Progressive
Bits/(Pixel*Frame)                       : 0.084
Stream size                              : 1.89 GiB (50%)
Title                                    : encounters-dewe_1080p
Writing library                          : x264 core 157 r2935 545de2f
Encoding settings                        : cabac=1 / ref=5 / deblock=1:-1:-1 / analyse=0x3:0x133 / me=umh / subme=7 / psy=1 / psy_rd=1.00:0.15 / mixed_ref=1 / me_range=16 / chroma_me=1 / trellis=1 / 8x8dct=1 / cqm=0 / deadzone=21,11 / fast_pskip=0 / chroma_qp_offset=-3 / threads=24 / lookahead_threads=4 / sliced_threads=0 / nr=0 / decimate=1 / interlaced=0 / bluray_compat=0 / constrained_intra=0 / bframes=3 / b_pyramid=2 / b_adapt=1 / b_bias=0 / direct=1 / weightb=1 / open_gop=0 / weightp=2 / keyint=250 / keyint_min=24 / scenecut=40 / intra_refresh=0 / rc_lookahead=40 / rc=crf / mbtree=1 / crf=20.0 / qcomp=0.60 / qpmin=0 / qpmax=69 / qpstep=4 / ip_ratio=1.40 / aq=1:1.00
Default                                  : Yes
Forced                                   : No

Audio #1
ID                                       : 2
Format                                   : DTS
Format/Info                              : Digital Theater Systems
Mode                                     : 16
Format settings, Endianness              : Big
Codec ID                                 : A_DTS
Duration                                 : 1h 26mn
Bit rate mode                            : Constant
Bit rate                                 : 1 509 Kbps
Channel(s)                               : 6 channels
Channel positions                        : Front: L C R, Side: L R, LFE
Sampling rate                            : 48.0 KHz
Bit depth                                : 24 bits
Compression mode                         : Lossy
Stream size                              : 934 MiB (24%)
Title                                    : German DTS 5.1 @ 1 509 Kbps
Language                                 : German
Default                                  : Yes
Forced                                   : No

Audio #2
ID                                       : 3
Format                                   : DTS
Format/Info                              : Digital Theater Systems
Mode                                     : 16
Format settings, Endianness              : Big
Codec ID                                 : A_DTS
Duration                                 : 1h 26mn
Bit rate mode                            : Constant
Bit rate                                 : 1 509 Kbps
Channel(s)                               : 6 channels
Channel positions                        : Front: L C R, Side: L R, LFE
Sampling rate                            : 48.0 KHz
Bit depth                                : 24 bits
Compression mode                         : Lossy
Stream size                              : 934 MiB (24%)
Title                                    : English DTS 5.1 @ 1 509 Kbps
Language                                 : English
Default                                  : No
Forced                                   : No

Text
ID                                       : 4
Format                                   : UTF-8
Codec ID                                 : S_TEXT/UTF8
Codec ID/Info                            : UTF-8 Plain Text
Title                                    : ger_forced.srt
Language                                 : German
Default                                  : Yes
Forced                                   : Yes


Download:
Share Online Share OnlineShare OnlineShare Online
 

Kommentare