Filecrypt zeigt vereinzelt Files als "n/a". Die Downloads sind trotzdem komplett.

DNS SERVER AENDERNum der staatlichen Zensur zu umgehen. Sollten wir von eurem Provider geseprrt werden, nutzt den TOR BROWSER oder ändert euren DNS SERVER.

Filmwünsche können bei uns im Forum abgegeben werden

Wir Speichern Nicht




 
 
 
Top Releases
Destination.Wedding.2018.MUL...
Papillon.2017.MULTI.COMPLETE...
Papillon.2017.GERMAN.DL.1080...
The.Bouncer.2018.German.AC3....
The.Bouncer.2018.German.AC3....
Belle.und.Sebastian.Freunde....
Papillon.2017.GERMAN.720p.Bl...
Belle.und.Sebastian.Freunde....
Predator.Upgrade.German.DL.A...
Predator.Upgrade.German.DL.A...

Cinedubs
Halloween.German.DL.AC3.Dubb...
Halloween.German.DL.AC3.Dubb...
Freaky.Friday.German.DL.AC3....
Freaky.Friday.German.DL.AC3....
Jupiters.Moon.2017.GERMAN.AC...
Jupiters.Moon.2017.GERMAN.AC...
Venom.German.DL.AC3.Dubbed.1...
Venom.German.DL.AC3.Dubbed.7...
Das.Haus.der.geheimnisvollen...
Das.Haus.der.geheimnisvollen...

Neuerscheinungen 2017-18
Unter.der.Flagge.des.Tigers....
FahrraddiebeLadri.di.bicicle...
Die.Pyramide.des.Sonnengotte...
Der.Schatz.der.Azteken.1965....
Gold.1934.German.COMPLETE.BL...
Schneefloeckchen.2017.COMPLE...
Belle.und.Sebastian.Freunde....
Jeepers.Creepers.II.2003.DUA...
Liliane.Susewind.Ein.tierisc...
Boarding.School.2018.German....

XXX
Bang.That.Ass.XXX.720p.WEBRi...
Bang.That.Ass.XXX.1080p.WEBR...
ConorCoxxx.18.03.30.Penny.Je...
SugarCookie.18.05.29.Jimena....
Blacked.18.11.26.Misha.Cross...
SweetheartVideo.Wifey.XXX.72...
ChicasLoca.18.11.26.Sandra.W...
ATKHairy.18.11.19.Kahlista.S...
BlaBlaCum.18.11.26.Lucia.Fer...
Sweet18.18.11.19.Liv.Revampe...
1000Facials.18.11.26.Lexi.Lo...
SweetheartVideo.18.11.19.Mer...
Cosmid.18.11.25.Cherry.Bond....
Twistys.18.11.19.Eliza.Ibarr...
AuntJudys.18.11.23.Afeena.Fu...
Bang.RealTeens.18.11.26.Paig...
ConorCoxxx.18.03.23.Savana.S...
SugarCookie.18.05.27.Stefani...
Babes.18.11.26.Elena.Koshka....
Bang.RealTeens.18.11.19.Harm...

3D
The.Art.of.Flight.3D.2011.Ge...
The.End.Of.The.World.3D.2010...
The.First.Avenger.Civil.War....
Die.Unglaublichen.2.2018.3D....
Skyscraper.3D.2018.MULTi.COM...
Ant-Man.And.The.Wasp.3D.2018...
Ant.Man.and.the.Wasp.3D.2018...
Die.Unglaublichen.2.3D.2018....
Die.Unglaublichen.2.2018.3D....
Die.Unglaublichen.2.2018.3D....
Sharknado.6.The.Last.One.3D....
Deep.Kleine.Helden.der.Tiefs...
Deep.3D.2017.MULTI.COMPLETE....
Detective.Dee.und.die.Legend...
Detective.Dee.und.die.Legend...

Old_Stuff
Akte.X.S03.German.DTS.DL.108...
Dunkirk.1958.COMPLETE.BLURAY...
Das.Wunder.von.Manhattan.199...
The.Amazing.Spiderman.2.Rise...
Rise.of.the.Predator.2014.Ge...
Detective.Dee.und.das.Geheim...
Detective.Dee.Und.Der.Fluch....
Ghost.Rider.Spirit.of.Vengea...
Species.IV.Das.Erwachen.2007...
Species.IV.Das.Erwachen.2007...
Hotel.Transsilvanien.2012.Ge...
The.Dead.2010.German.DL.1080...
The.Dead.2.India.2013.German...
Britney.Spears.Live.The.Femm...
Buffy.The.Vampire.Slayer.199...

Filme
Aquaphobia.2012.German.DL.10...
Criminal.Minds.S13.German.DD...
Asphalt.1929.German.1080p.Bl...
Conjuring.Die.Heimsuchung.Th...
Arabische.Naechte.1942.Germa...
Jim.Knopf.und.Lukas.der.Loko...
The.Handmaids.Tale.S02.COMPL...
Swedish.Dicks.S02.GERMAN.720...
Power.2014.S05.German.DL.DUB...
Power.2014.S05.German.DL.DUB...
Shut.Eye.S01.German.DD20.DL....
Shut.Eye.S01.German.DD20.DL....
Arachnoquake.German.2012.DL....
BuyBust.2018.German.1080p.Bl...
Vikings.S05.German.DD+51.DL....
Vikings.S05.German.DD+51.DL....
Arahan.2004.German.1080p.Blu...
Ardennes.Fury.Die.letzte.Sch...
Armed.And.Deadly.2011.German...
Armee.der.Finsternis.KINOFAS...
The.Handmaids.Tale.S02.COMPL...
MacGyver.1985.S01.COMPLETE.G...
Vikings.S05.GERMAN.1080p.Web...
Girls.Night.Out.2017.German....

 
 
Asphalt.1929.German.1080p.BluRay.x264-OMGtv

Jahr: 1929
Genre: Drama
Sprache: Deutsch AC3
Laufzeit: 1h 34mn
Bitrate: 8 302 Kbps
Format: MKV
Größe: 5.47 GiB
Release:

Beschreibung:

In einem Berliner Juwelierladen wird ein Diebstahl entdeckt; der junge Polizist Albert Holk wird hinzugerufen. Der alte Juwelier will die junge Diebin Else Kramer laufen lassen, doch der Polizist erklärt, als Beamter müsse er die Sache weiter verfolgen. Um ihrer Strafe zu entgehen, versucht Else Kramer nicht nur das Mitleid des Polizisten zu wecken, sondern es gelingt ihr sogar ihn zu verführen. Für Albert Holk hat die Begegnung mit der jungen Diebin folgenschwere Auswirkungen….



Complete name                            : omgtv-asphalt.1929-1080p.mkv
Format                                   : Matroska
Format version                           : Version 4 / Version 2
File size                                : 5.47 GiB
Duration                                 : 1h 34mn
Overall bit rate                         : 8 302 Kbps
Encoded date                             : UTC 2016-12-22 09:47:47
Writing application                      : mkvmerge v9.0.1 ('Obstacles') 64bit
Writing library                          : libebml v1.3.3 + libmatroska v1.4.4
DURATION                                 : 01:34:14.560000000
NUMBER_OF_FRAMES                         : 176705
NUMBER_OF_BYTES                          : 135709440
_STATISTICS_WRITING_APP                  : mkvmerge v9.0.1 ('Obstacles') 64bit
_STATISTICS_WRITING_DATE_UTC             : 2016-12-22 09:47:47
_STATISTICS_TAGS                         : BPS DURATION NUMBER_OF_FRAMES NUMBER_OF_BYTES

Video
ID                                       : 1
Format                                   : AVC
Format/Info                              : Advanced Video Codec
Format profile                           : High@L4.1
Format settings, CABAC                   : Yes
Format settings, ReFrames                : 4 frames
Codec ID                                 : V_MPEG4/ISO/AVC
Duration                                 : 1h 34mn
Bit rate                                 : 8 109 Kbps
Width                                    : 1 440 pixels
Height                                   : 1 080 pixels
Display aspect ratio                     : 4:3
Frame rate mode                          : Constant
Frame rate                               : 24.000 fps
Color space                              : YUV
Chroma subsampling                       : 4:2:0
Bit depth                                : 8 bits
Scan type                                : Progressive
Bits/(Pixel*Frame)                       : 0.217
Stream size                              : 5.23 GiB (96%)
Writing library                          : x264 core 148 r2744 b97ae06
Encoding settings                        : cabac=1 / ref=4 / deblock=1:-1:-1 / analyse=0x3:0x113 / me=umh / subme=7 / psy=1 / psy_rd=1.00:0.00 / mixed_ref=1 / me_range=16 / chroma_me=1 / trellis=1 / 8x8dct=1 / cqm=0 / deadzone=21,11 / fast_pskip=0 / chroma_qp_offset=-2 / threads=12 / lookahead_threads=2 / sliced_threads=0 / nr=0 / decimate=1 / interlaced=0 / bluray_compat=0 / constrained_intra=0 / bframes=3 / b_pyramid=2 / b_adapt=1 / b_bias=0 / direct=3 / weightb=1 / open_gop=0 / weightp=2 / keyint=250 / keyint_min=24 / scenecut=40 / intra_refresh=0 / rc_lookahead=40 / rc=2pass / mbtree=1 / bitrate=8109 / ratetol=1.0 / qcomp=0.60 / qpmin=0 / qpmax=69 / qpstep=4 / cplxblur=20.0 / qblur=0.5 / ip_ratio=1.40 / aq=1:1.00
Default                                  : Yes
Forced                                   : No

Audio
ID                                       : 2
Format                                   : AC-3
Format/Info                              : Audio Coding 3
Mode extension                           : CM (complete main)
Format settings, Endianness              : Big
Codec ID                                 : A_AC3
Duration                                 : 1h 34mn
Bit rate mode                            : Constant
Bit rate                                 : 192 Kbps
Channel(s)                               : 2 channels
Channel positions                        : Front: L R
Sampling rate                            : 48.0 KHz
Bit depth                                : 16 bits
Compression mode                         : Lossy
Stream size                              : 129 MiB (2%)
Language                                 : German
Default                                  : Yes
Forced                                   : No


Download:
Share Online Share OnlineShare OnlineShare Online
 

Kommentare