DNS SERVER AENDERNum der staatlichen Zensur zu umgehen. Sollten wir von eurem Provider geseprrt werden, nutzt den TOR BROWSER oder ändert euren DNS SERVER.

Filmwünsche können bei uns im Forum abgegeben werden

Wir Speichern Nicht




 
 
 
Top Releases
Dieses.bescheuerte.Herz.2017...
Gold.Gier.hat.eine.neue.Farb...
Charlie.Countryman.2013.Germ...
Halloween.German.DL.AC3.Dubb...
Halloween.German.DL.AC3.Dubb...
New.Worlds.Aufbruch.nach.Ame...
New.Worlds.Aufbruch.nach.Ame...
City.of.Life.and.Death.2009....
City.of.Life.and.Death.2009....
City.of.Life.and.Death.2009....

Cinedubs
Gaensehaut.2.Gruseliges.Hall...
Aquaman.TS.LD.German.DL.720p...
Eho.Echo.German.720p.WEBRip....
Eho.Echo.German.1080p.WEBRip...
Bad.Times.at.the.El.Royale.2...
Bad.Spies.2018.German.DL.AC3...
Aquaman.2018.GERMAN.AC3.MD.7...
Bad.Spies.German.DL.AC3.Dubb...
Bad.Spies.German.DL.AC3.Dubb...
Bad.Times.at.the.El.Royale.G...

Neuerscheinungen 2018-19
Shaitan.2011.German.1080p.HD...
Von.Herren.und.Dienern.2015....
Maniac.1980.REMASTERED.COMPL...
Colditz.2005.German.DL.1080p...
Cry.Wolf.2005.German.DL.1080...
Colditz.2005.German.DL.1080p...
Colditz.2005.German.720p.Blu...
Death.Kiss.UNCUT.2018.German...
Death.Kiss.UNCUT.2018.DUAL.C...
Death.Kiss.UNCUT.2018.German...

XXX
EvilAngel.Artcore.Anal.XXX.7...
FakehubOriginals.18.12.25.Bl...
GrandpasFuckTeens.18.12.25.Y...
FakeTaxi.18.12.26.Louise.Lee...
GotMylf.18.12.27.Mia.Lelani....
HotAndMean.18.12.28.Alina.Lo...
FamilyStrokes.18.12.27.Arian...
HardX.18.12.28.Ivy.Lebelle.M...
GirlsOutWest.18.12.25.Rubi.V...
ATKGirlfriends.18.12.26.Alex...
GapeLand.18.12.26.Katy.Rose....
FTVMilfs.18.12.25.Candice.Da...
GirlsGonePink.18.12.27.Aspen...
HotLegsAndFeet.18.12.25.Mia....
Fitting-Room.18.12.24.Red.Fo...
GiveMePink.18.12.25.Mary.Kal...
GirlsOutWest.18.12.26.Lizzie...
HardX.18.12.25.Eliza.Ibarra....
Hustler.18.12.20.Jennifer.Wh...
Hegre.18.12.25.Ariel.And.Mel...

3D
Bis.an.die.Grenzen.des.Unive...
Best.of.3D.vol.13.-.15.GERMA...
Limbradur.und.die.Magie.der....
Kaluoka.Hina.Das.Zauberriff....
Limbradur.und.die.Magie.der....
Smallfoot.3D.2018.COMPLETE.B...
Smallfoot.Ein.eisigartiges.A...
Skyscraper.3D.2018.German.DL...
Meg.3D.2018.MULTi.COMPLETE.B...
Meg.3D.2018.German.DL.1080p....
Gans.im.Glueck.3D.2018.MULTi...
The.Art.of.Flight.3D.2011.Ge...
The.End.Of.The.World.3D.2010...
The.First.Avenger.Civil.War....
Die.Unglaublichen.2.2018.3D....

Old_Stuff
Peter.Hase.2018.German.DL.10...
Akte.X.S05.German.DTS.DL.108...
Akte.X.S04.German.DTS.DL.108...
Akte.X.S03.German.DTS.DL.108...
Dunkirk.1958.COMPLETE.BLURAY...
Das.Wunder.von.Manhattan.199...
The.Amazing.Spiderman.2.Rise...
Rise.of.the.Predator.2014.Ge...
Detective.Dee.und.das.Geheim...
Detective.Dee.Und.Der.Fluch....
Ghost.Rider.Spirit.of.Vengea...
Species.IV.Das.Erwachen.2007...
Species.IV.Das.Erwachen.2007...
Hotel.Transsilvanien.2012.Ge...
The.Dead.2010.German.DL.1080...

Filme
Battle.in.Seattle.2007.Germa...
Die.zehn.Gebote.aka.The.Ten....
The.Hills.Have.Eyes.1977.4K....
Die.Legende.der.Waechter.201...
1612.Der.blutige.Kampf.um.da...
1612.Der.blutige.Kampf.um.da...
ZDF.History.Kinderstars.-.He...
Mensch.Heino.Der.Saenger.und...
So.wie.du.bist.2012.German.7...
Into.the.Blue.2005.Remastere...
Die.Schlacht.um.den.Planet d...
Eroberung.des.Planeten.der.A...
NCIS.Los.Angeles.S10.GERMAN....
NCIS.Los.Angeles.S10.GERMAN....
S.W.A.T.2017.S02.German.DD51...
S.W.A.T.2017.S02.German.DD51...
Carter.S01.GERMAN.DL.720p.HD...
The.Big.Bang.Theory.S12.GERM...
The.Big.Bang.Theory.S12.GERM...
Young.Sheldon.S02.GERMAN.DUB...
Young.Sheldon.S02.GERMAN.DUB...
Outlander.S04.German.DD51.DL...
Black.Panther.2018.German.DT...
Runner.Runner.2013.German.DL...

 
 
Dieses.bescheuerte.Herz.2017.German.AC3.1080p.BluRay.x265-FuN

Jahr: 2017
Genre: Drama, Komödie
Sprache: Deutsch AC3
Laufzeit: 1h 46mn
Bitrate: 2 501 Kbps
Format: MKV
Größe: 1.86 GiB
Release:

Beschreibung:

Lenny, der fast 30-jährige Sohn eines Herzspezialisten, führt ein unbeschwertes Leben in Saus und Braus. Feiern, Geld ausgeben und nichts tun stehen bei ihm auf der Tagesordnung. Als sein Vater ihm die Kreditkarte sperrt, hat er nur eine Chance, sein altes Leben wieder zurückzubekommen: Er muss sich um den seit seiner Geburt schwer herzkranken 15-jährigen David kümmern. Dabei prallen zunächst zwei Welten aufeinander, denn Lenny, der Lebemann aus reichem Haus, unternimmt mit dem aus einer tristen Hochhaussiedlung stammenden David all die Dinge, die dieser schon immer erleben wollte - so wie luxuriös shoppen gehen und Sportwagen fahren. Doch schon bald stellt der sonst so verantwortungslose Lenny fest, dass er an dem todgeweihten Teenager hängt. Und zwar mehr, als ihm lieb ist...



Complete name                            : Dieses.bescheuerte.Herz.2017.German.AC3.1080p.BluRay.x265-FuN.mkv
Format                                   : Matroska
Format version                           : Version 4 / Version 2
File size                                : 1.86 GiB
Duration                                 : 1h 46mn
Overall bit rate                         : 2 501 Kbps
Movie name                               : Dieses.bescheuerte.Herz.2017.German.1080p.BluRay.AVC-AVC4D
Encoded date                             : UTC 2018-07-26 12:42:22
Writing application                      : mkvmerge v20.0.0 ('I Am The Sun') 64-bit
Writing library                          : libebml v1.3.5 + libmatroska v1.4.8
DURATION                                 : 01:45:38.204000000
NUMBER_OF_FRAMES                         : 1338
NUMBER_OF_BYTES                          : 7851871
_STATISTICS_WRITING_APP                  : mkvmerge v20.0.0 ('I Am The Sun') 64-bit
_STATISTICS_WRITING_DATE_UTC             : 2018-07-26 12:42:22
_STATISTICS_TAGS                         : BPS DURATION NUMBER_OF_FRAMES NUMBER_OF_BYTES

Video
ID                                       : 1
Format                                   : HEVC
Format/Info                              : High Efficiency Video Coding
Format profile                           : Main@L4.0
Codec ID                                 : V_MPEGH/ISO/HEVC
Duration                                 : 1h 46mn
Bit rate                                 : 2 068 Kbps
Width                                    : 1 920 pixels
Height                                   : 804 pixels
Display aspect ratio                     : 2.40:1
Frame rate mode                          : Constant
Frame rate                               : 24.000 fps
Color space                              : YUV
Chroma subsampling                       : 4:2:0
Bit depth                                : 8 bits
Bits/(Pixel*Frame)                       : 0.056
Stream size                              : 1.54 GiB (83%)
Writing library                          : x265 2.6:[Windows][GCC 7.2.0][64 bit] 8bit+10bit+12bit
Encoding settings                        : cpuid=1173503 / frame-threads=3 / numa-pools=8 / wpp / no-pmode / no-pme / no-psnr / no-ssim / log-level=2 / input-csp=1 / input-res=1920x804 / interlace=0 / total-frames=0 / level-idc=0 / high-tier=1 / uhd-bd=0 / ref=3 / no-allow-non-conformance / no-repeat-headers / annexb / no-aud / no-hrd / info / hash=0 / no-temporal-layers / open-gop / min-keyint=24 / keyint=240 / bframes=4 / b-adapt=0 / b-pyramid / bframe-bias=0 / rc-lookahead=15 / lookahead-slices=5 / scenecut=40 / no-intra-refresh / ctu=64 / min-cu-size=8 / no-rect / no-amp / max-tu-size=32 / tu-inter-depth=1 / tu-intra-depth=1 / limit-tu=0 / rdoq-level=0 / dynamic-rd=0.00 / no-ssim-rd / signhide / no-tskip / nr-intra=0 / nr-inter=0 / no-constrained-intra / no-strong-intra-smoothing / max-merge=2 / limit-refs=3 / no-limit-modes / me=1 / subme=2 / merange=57 / temporal-mvp / weightp / no-weightb / no-analyze-src-pics / deblock=0:0 / no-sao / no-sao-non-deblock / rd=2 / no-early-skip / rskip / fast-intra / no-tskip-fast / no-cu-lossless / no-b-intra / no-splitrd-skip / rdpenalty=0 / psy-rd=2.00 / psy-rdoq=0.00 / no-rd-refine / analysis-reuse-mode=0 / no-lossless / cbqpoffs=0 / crqpoffs=0 / rc=crf / crf=20.0 / qcomp=0.60 / qpstep=4 / stats-write=0 / stats-read=0 / ipratio=1.40 / pbratio=1.30 / aq-mode=1 / aq-strength=1.00 / cutree / zone-count=0 / no-strict-cbr / qg-size=32 / no-rc-grain / qpmax=69 / qpmin=0 / no-const-vbv / sar=1 / overscan=0 / videoformat=5 / range=0 / colorprim=1 / transfer=1 / colormatrix=1 / chromaloc=0 / display-window=0 / max-cll=0,0 / min-luma=0 / max-luma=255 / log2-max-poc-lsb=8 / vui-timing-info / vui-hrd-info / slices=1 / no-opt-qp-pps / no-opt-ref-list-length-pps / no-multi-pass-opt-rps / scenecut-bias=0.05 / no-opt-cu-delta-qp / no-aq-motion / no-hdr / no-hdr-opt / no-dhdr10-opt / analysis-reuse-level=5 / scale-factor=0 / refine-intra=0 / refine-inter=0 / refine-mv=0 / no-limit-sao / ctu-info=0 / no-lowpass-dct / refine-mv-type=0 / copy-pic=1
Default                                  : Yes
Forced                                   : No
DURATION                                 : 01:46:21.959000000
NUMBER_OF_FRAMES                         : 153167
NUMBER_OF_BYTES                          : 1683069784
_STATISTICS_WRITING_APP                  : mkvmerge v20.0.0 ('I Am The Sun') 64-bit
_STATISTICS_WRITING_DATE_UTC             : 2018-07-26 12:42:22
_STATISTICS_TAGS                         : BPS DURATION NUMBER_OF_FRAMES NUMBER_OF_BYTES

Audio
ID                                       : 2
Format                                   : AC-3
Format/Info                              : Audio Coding 3
Mode extension                           : CM (complete main)
Format settings, Endianness              : Big
Codec ID                                 : A_AC3
Duration                                 : 1h 46mn
Bit rate mode                            : Constant
Bit rate                                 : 384 Kbps
Channel(s)                               : 6 channels
Channel positions                        : Front: L C R, Side: L R, LFE
Sampling rate                            : 48.0 KHz
Bit depth                                : 16 bits
Compression mode                         : Lossy
Stream size                              : 292 MiB (15%)
Title                                    : Surround
Language                                 : German
Default                                  : Yes
Forced                                   : No
DURATION                                 : 01:46:20.928000000
NUMBER_OF_FRAMES                         : 199404
NUMBER_OF_BYTES                          : 306284544
_STATISTICS_WRITING_APP                  : mkvmerge v20.0.0 ('I Am The Sun') 64-bit
_STATISTICS_WRITING_DATE_UTC             : 2018-07-26 12:42:22
_STATISTICS_TAGS                         : BPS DURATION NUMBER_OF_FRAMES NUMBER_OF_BYTES

Text
ID                                       : 3
Format                                   : VobSub
Muxing mode                              : zlib
Codec ID                                 : S_VOBSUB
Codec ID/Info                            : The same subtitle format used on DVDs
Title                                    : VobSuB FULL
Language                                 : German
Default                                  : No
Forced                                   : No


Download:
Share Online Share OnlineShare OnlineShare Online
 

Kommentare