DNS SERVER AENDERNum der staatlichen Zensur zu umgehen. Sollten wir von eurem Provider geseprrt werden, nutzt den TOR BROWSER oder ändert euren DNS SERVER.

Filmwünsche können bei uns im Forum abgegeben werden

Wir Speichern Nicht




 
 
 
Top Releases
Dieses.bescheuerte.Herz.2017...
Gold.Gier.hat.eine.neue.Farb...
Charlie.Countryman.2013.Germ...
Halloween.German.DL.AC3.Dubb...
Halloween.German.DL.AC3.Dubb...
New.Worlds.Aufbruch.nach.Ame...
New.Worlds.Aufbruch.nach.Ame...
City.of.Life.and.Death.2009....
City.of.Life.and.Death.2009....
City.of.Life.and.Death.2009....

Cinedubs
Gaensehaut.2.Gruseliges.Hall...
Aquaman.TS.LD.German.DL.720p...
Eho.Echo.German.720p.WEBRip....
Eho.Echo.German.1080p.WEBRip...
Bad.Times.at.the.El.Royale.2...
Bad.Spies.2018.German.DL.AC3...
Aquaman.2018.GERMAN.AC3.MD.7...
Bad.Spies.German.DL.AC3.Dubb...
Bad.Spies.German.DL.AC3.Dubb...
Bad.Times.at.the.El.Royale.G...

Neuerscheinungen 2018-19
Robin.Hood.Der.Rebell.2018.G...
Shaitan.2011.German.1080p.HD...
Von.Herren.und.Dienern.2015....
Maniac.1980.REMASTERED.COMPL...
Colditz.2005.German.DL.1080p...
Cry.Wolf.2005.German.DL.1080...
Colditz.2005.German.DL.1080p...
Colditz.2005.German.720p.Blu...
Death.Kiss.UNCUT.2018.German...
Death.Kiss.UNCUT.2018.DUAL.C...

XXX
EvilAngel.Artcore.Anal.XXX.1...
EvilAngel.Artcore.Anal.XXX.7...
FakehubOriginals.18.12.25.Bl...
GrandpasFuckTeens.18.12.25.Y...
FakeTaxi.18.12.26.Louise.Lee...
GotMylf.18.12.27.Mia.Lelani....
HotAndMean.18.12.28.Alina.Lo...
FamilyStrokes.18.12.27.Arian...
HardX.18.12.28.Ivy.Lebelle.M...
GirlsOutWest.18.12.25.Rubi.V...
ATKGirlfriends.18.12.26.Alex...
GapeLand.18.12.26.Katy.Rose....
FTVMilfs.18.12.25.Candice.Da...
GirlsGonePink.18.12.27.Aspen...
HotLegsAndFeet.18.12.25.Mia....
Fitting-Room.18.12.24.Red.Fo...
GiveMePink.18.12.25.Mary.Kal...
GirlsOutWest.18.12.26.Lizzie...
HardX.18.12.25.Eliza.Ibarra....
Hustler.18.12.20.Jennifer.Wh...

3D
Bis.an.die.Grenzen.des.Unive...
Best.of.3D.vol.13.-.15.GERMA...
Limbradur.und.die.Magie.der....
Kaluoka.Hina.Das.Zauberriff....
Limbradur.und.die.Magie.der....
Smallfoot.3D.2018.COMPLETE.B...
Smallfoot.Ein.eisigartiges.A...
Skyscraper.3D.2018.German.DL...
Meg.3D.2018.MULTi.COMPLETE.B...
Meg.3D.2018.German.DL.1080p....
Gans.im.Glueck.3D.2018.MULTi...
The.Art.of.Flight.3D.2011.Ge...
The.End.Of.The.World.3D.2010...
The.First.Avenger.Civil.War....
Die.Unglaublichen.2.2018.3D....

Old_Stuff
ZZ.Top.Live.from.Texas.2008....
Peter.Hase.2018.German.DL.10...
Akte.X.S05.German.DTS.DL.108...
Akte.X.S04.German.DTS.DL.108...
Akte.X.S03.German.DTS.DL.108...
Dunkirk.1958.COMPLETE.BLURAY...
Das.Wunder.von.Manhattan.199...
The.Amazing.Spiderman.2.Rise...
Rise.of.the.Predator.2014.Ge...
Detective.Dee.und.das.Geheim...
Detective.Dee.Und.Der.Fluch....
Ghost.Rider.Spirit.of.Vengea...
Species.IV.Das.Erwachen.2007...
Species.IV.Das.Erwachen.2007...
Hotel.Transsilvanien.2012.Ge...

Filme
Birth.2004.German.AC3D.DL.10...
Kinderfotos.im.Netz.gepostet...
Ruhe.Sanft.GmbH.1963.German....
Small.World.2010.German.DL.1...
Shoot.em.Down.2010.German.10...
Jacky.im.Koenigreich.der.Fra...
What.They.Had.2018.1080p.WEB...
Battlestar.Galactica.Blood.a...
Gesetz.der.Rache.2009.German...
El.Camino.Christmas.2017.Ger...
Batman.und.Mr.Freeze.Eiszeit...
Zeugenschutzprogramm.1999.Ge...
F.B.I.Academy.1988.German.AC...
Battle.in.Seattle.2007.Germa...
Die.zehn.Gebote.aka.The.Ten....
The.Hills.Have.Eyes.1977.4K....
Die.Legende.der.Waechter.201...
1612.Der.blutige.Kampf.um.da...
1612.Der.blutige.Kampf.um.da...
ZDF.History.Kinderstars.-.He...
Mensch.Heino.Der.Saenger.und...
So.wie.du.bist.2012.German.7...
Into.the.Blue.2005.Remastere...
Die.Schlacht.um.den.Planet d...

 
 
Robin.Hood.Der.Rebell.2018.German.AC3.DL.1080p.BluRay.x265-FuN

Jahr: 2018
Genre: Action
Sprache: Deutsch AC3 | Englisch AC3
Laufzeit: 1h 32mn
Bitrate: 4 278 Kbps
Format: MKV
Größe: 2.75 GiB
Release:

Beschreibung:

Der Sheriff von Nottingham (James Oliver Wheatley) hat seinen Erzfeind Robin Hood (Ben Freeman) da getroffen, wo es ihm am meisten weg tut: Der fiese Herrscher entführte die große Liebes des berühmten Gesetzlosen, Maid Marian (Marie Everett ). Nun sitzt sie im Kerker – und Robin Hood will sie so schnell es geht wieder befreien. Er trommelt seine treuen Kumpanen zusammen, unter ihnen Little John (Jamie Kenna) und Friar Tuck (Brian Blessed), und macht sich gemeinsam mit ihnen auf den Weg. Jeder von Robins Männern wird alles geben, um dem Anführer der Rettungsmission zu helfen. Niemand wird nach Hause gehen, bevor Robin seine Marian wieder in die Arme schließen kann…



Complete name                            : Robin.Hood.Der.Rebell.x265.mkv
Format                                   : Matroska
Format version                           : Version 4 / Version 2
File size                                : 2.75 GiB
Duration                                 : 1h 32mn
Overall bit rate                         : 4 278 Kbps
Encoded date                             : UTC 2019-01-05 03:42:27
Writing application                      : mkvmerge v28.2.0 ('The Awakening') 64-bit
Writing library                          : libebml v1.3.6 + libmatroska v1.4.9
DURATION                                 : 01:26:20.154000000
NUMBER_OF_FRAMES                         : 802
NUMBER_OF_BYTES                          : 2555844
_STATISTICS_WRITING_APP                  : mkvmerge v28.2.0 ('The Awakening') 64-bit
_STATISTICS_WRITING_DATE_UTC             : 2019-01-05 03:42:27
_STATISTICS_TAGS                         : BPS DURATION NUMBER_OF_FRAMES NUMBER_OF_BYTES

Video
ID                                       : 1
Format                                   : HEVC
Format/Info                              : High Efficiency Video Coding
Format profile                           : Main@L4.0
Codec ID                                 : V_MPEGH/ISO/HEVC
Duration                                 : 1h 32mn
Bit rate                                 : 3 425 Kbps
Width                                    : 1 920 pixels
Height                                   : 800 pixels
Display aspect ratio                     : 2.40:1
Frame rate mode                          : Constant
Frame rate                               : 23.976 fps
Color space                              : YUV
Chroma subsampling                       : 4:2:0
Bit depth                                : 8 bits
Bits/(Pixel*Frame)                       : 0.093
Stream size                              : 2.20 GiB (80%)
Writing library                          : x265 2.8:[Windows][GCC 7.1.0][64 bit] 8bit+10bit+12bit
Encoding settings                        : cpuid=1111039 / frame-threads=4 / numa-pools=8,8 / wpp / no-pmode / no-pme / no-psnr / no-ssim / log-level=2 / input-csp=1 / input-res=1920x800 / interlace=0 / total-frames=0 / level-idc=0 / high-tier=1 / uhd-bd=0 / ref=3 / no-allow-non-conformance / no-repeat-headers / annexb / no-aud / no-hrd / info / hash=0 / no-temporal-layers / open-gop / min-keyint=24 / keyint=240 / gop-lookahead=0 / bframes=4 / b-adapt=2 / b-pyramid / bframe-bias=0 / rc-lookahead=20 / lookahead-slices=5 / scenecut=40 / radl=0 / no-intra-refresh / ctu=64 / min-cu-size=8 / no-rect / no-amp / max-tu-size=32 / tu-inter-depth=1 / tu-intra-depth=1 / limit-tu=0 / rdoq-level=0 / dynamic-rd=0.00 / no-ssim-rd / signhide / no-tskip / nr-intra=0 / nr-inter=0 / no-constrained-intra / no-strong-intra-smoothing / max-merge=2 / limit-refs=3 / no-limit-modes / me=1 / subme=2 / merange=57 / temporal-mvp / weightp / no-weightb / no-analyze-src-pics / deblock=0:0 / no-sao / no-sao-non-deblock / rd=3 / no-early-skip / rskip / no-fast-intra / no-tskip-fast / no-cu-lossless / no-b-intra / no-splitrd-skip / rdpenalty=0 / psy-rd=2.00 / psy-rdoq=0.00 / no-rd-refine / no-lossless / cbqpoffs=0 / crqpoffs=0 / rc=crf / crf=23.0 / qcomp=0.60 / qpstep=4 / stats-write=0 / stats-read=0 / ipratio=1.40 / pbratio=1.30 / aq-mode=1 / aq-strength=1.00 / cutree / zone-count=0 / no-strict-cbr / qg-size=32 / no-rc-grain / qpmax=69 / qpmin=0 / no-const-vbv / sar=1 / overscan=0 / videoformat=5 / range=0 / colorprim=1 / transfer=1 / colormatrix=1 / chromaloc=0 / display-window=0 / max-cll=0,0 / min-luma=0 / max-luma=255 / log2-max-poc-lsb=8 / vui-timing-info / vui-hrd-info / slices=1 / no-opt-qp-pps / no-opt-ref-list-length-pps / no-multi-pass-opt-rps / scenecut-bias=0.05 / no-opt-cu-delta-qp / no-aq-motion / no-hdr / no-hdr-opt / no-dhdr10-opt / no-idr-recovery-sei / analysis-reuse-level=5 / scale-factor=0 / refine-intra=0 / refine-inter=0 / refine-mv=0 / no-limit-sao / ctu-info=0 / no-lowpass-dct / refine-mv-type=0 / copy-pic=1 / max-ausize-factor=1.0 / no-dynamic-refine / no-single-sei
Default                                  : Yes
Forced                                   : No
DURATION                                 : 01:32:04.603000000
NUMBER_OF_FRAMES                         : 132458
NUMBER_OF_BYTES                          : 2420849958
_STATISTICS_WRITING_APP                  : mkvmerge v28.2.0 ('The Awakening') 64-bit
_STATISTICS_WRITING_DATE_UTC             : 2019-01-05 03:42:27
_STATISTICS_TAGS                         : BPS DURATION NUMBER_OF_FRAMES NUMBER_OF_BYTES

Audio #1
ID                                       : 2
Format                                   : AC-3
Format/Info                              : Audio Coding 3
Mode extension                           : CM (complete main)
Format settings, Endianness              : Big
Codec ID                                 : A_AC3
Duration                                 : 1h 32mn
Bit rate mode                            : Constant
Bit rate                                 : 384 Kbps
Channel(s)                               : 6 channels
Channel positions                        : Front: L C R, Side: L R, LFE
Sampling rate                            : 48.0 KHz
Bit depth                                : 16 bits
Compression mode                         : Lossy
Delay relative to video                  : -5ms
Stream size                              : 253 MiB (9%)
Title                                    : Surround
Language                                 : German
Default                                  : Yes
Forced                                   : No
DURATION                                 : 01:32:04.576000000
NUMBER_OF_FRAMES                         : 172643
NUMBER_OF_BYTES                          : 265179648
_STATISTICS_WRITING_APP                  : mkvmerge v28.2.0 ('The Awakening') 64-bit
_STATISTICS_WRITING_DATE_UTC             : 2019-01-05 03:42:27
_STATISTICS_TAGS                         : BPS DURATION NUMBER_OF_FRAMES NUMBER_OF_BYTES

Audio #2
ID                                       : 3
Format                                   : AC-3
Format/Info                              : Audio Coding 3
Mode extension                           : CM (complete main)
Format settings, Endianness              : Big
Codec ID                                 : A_AC3
Duration                                 : 1h 32mn
Bit rate mode                            : Constant
Bit rate                                 : 384 Kbps
Channel(s)                               : 6 channels
Channel positions                        : Front: L C R, Side: L R, LFE
Sampling rate                            : 48.0 KHz
Bit depth                                : 16 bits
Compression mode                         : Lossy
Delay relative to video                  : -5ms
Stream size                              : 253 MiB (9%)
Title                                    : Surround
Language                                 : English
Default                                  : No
Forced                                   : No
DURATION                                 : 01:32:04.576000000
NUMBER_OF_FRAMES                         : 172643
NUMBER_OF_BYTES                          : 265179648
_STATISTICS_WRITING_APP                  : mkvmerge v28.2.0 ('The Awakening') 64-bit
_STATISTICS_WRITING_DATE_UTC             : 2019-01-05 03:42:27
_STATISTICS_TAGS                         : BPS DURATION NUMBER_OF_FRAMES NUMBER_OF_BYTES


Download:
Share Online Share OnlineShare OnlineShare Online
 

Kommentare